Aap Mujhe Achche Lagne Lage (2002) (MUSIC VIDEOS ALBUM) 1080p Untouched WebHD AVC AAC By-DusIcTv


~~~Desi Share.org~~~

PropellerAds

xxxxxxxxxxxxxxxxxxxxxxxxxxxxxxxxxxxxxxxxxxxxxxxxxxxxxxxxxxxxxxx
Aap Mujhe Achche Lagne Lage (2002) (MUSIC VIDEOS ALBUM) 1080p Untouched WebHD AVC AAC By-DusIcTv
xxxxxxxxxxxxxxxxxxxxxxxxxxxxxxxxxxxxxxxxxxxxxxxxxxxxxxxxxxxxxxx

Media info
General
Format                                   : Matroska
Format version                           : Version 4
File size                                : 1.17 GB
Overall bit rate                         : 3 956 kb/s
Encoded date                             : UTC 2019-08-28 13:27:23
Writing application                      : mkvmerge v36.0.0 (‘Is That Jazz?’) 32-bit
Writing library                          : libebml v1.3.9 + libmatroska v1.5.2

Video
ID                                       : 1
Format                                   : AVC
Format/Info                              : Advanced Video Codec
Format profile                           : [email protected]
Format settings                          : CABAC / 4 Ref Frames
Format settings, CABAC                   : Yes
Format settings, Reference frames        : 4 frames
Codec ID                                 : V_MPEG4/ISO/AVC
Bit rate                                 : 3 826 kb/s
Width                                    : 1 920 pixels
Height                                   : 1 080 pixels
Display aspect ratio                     : 16:9
Frame rate mode                          : Constant
Frame rate                               : 25.000 FPS
Color space                              : YUV
Chroma subsampling                       : 4:2:0
Bit depth                                : 8 bits
Scan type                                : Progressive
Bits/(Pixel*Frame)                       : 0.074
Stream size                              : 166 MiB (97%)
Language                                 : English
Default                                  : Yes
Forced                                   : No

Audio
ID                                       : 2
Format                                   : AAC LC
Format/Info                              : Advanced Audio Codec Low Complexity
Codec ID                                 : A_AAC-2
Bit rate                                 : 128 kb/s
Channel(s)                               : 2 channels
Channel layout                           : L R
Sampling rate                            : 48.0 kHz
Frame rate                               : 46.875 FPS (1024 SPF)
Compression mode                         : Lossy
Delay relative to video                  : 16 ms
Stream size                              : 5.57 MiB (3%)
Language                                 : Hindi
Default                                  : Yes
Forced                                   : No

Screen Shot

G-Drive Download

01-Aap Mujhe Achche Lagne Lage [By-DusIcTv].mkv – 172.1 MB

02-O Re Gori [By-DusIcTv].mkv – 324.5 MB

03-Kuchh Hum Mein [By-DusIcTv].mkv – 206.8 MB

04-Hawaon Ne Yeh Kaha [By-DusIcTv].mkv – 243.3 MB

05-We Wish You A Great Life _ Meri Jaan [By-DusIcTv].mkv – 219.8 MB

06-Meri Jaan (2nd) [By-DusIcTv].mkv – 32.7 MB


Link Shorteners can be a pain, but they are our only way to maintain the servers. Your patience is highly appreciated and we hope our service can be worth it.

 

If You Found A Dead Link Please Report Below In Comment Box


Leave a Reply

avatar
  Subscribe  
Notify of