Agneepath (2012) BluRay 1080p DTS-HDMA 5.1 AVC REMUX – FraMeSToR | 41 GB | G- Drive |


~~~Desi Share.org~~~

PropellerAds

❤ Donate To keep US Alive ❤

General
FraMeSToR.mkv
Format : Matroska
Format version : Version 4
File size : 41.1 GiB
Duration : 2 h 54 min
Overall bit rate mode : Variable
Overall bit rate : 33.8 Mb/s
Movie name : Agneepath (2012)
Encoded date : UTC 2018-08-02 17:36:07
Writing application : mkvmerge v25.0.0 (‘Prog Noir’) 64-bit
Writing library : libebml v1.3.6 + libmatroska v1.4.9

Video
ID : 1
Format : AVC
Format/Info : Advanced Video Codec
Format profile : [email protected]
Format settings : CABAC / 4 Ref Frames
Format settings, CABAC : Yes
Format settings, ReFrames : 4 frames
Codec ID : V_MPEG4/ISO/AVC
Duration : 2 h 54 min
Bit rate mode : Variable
Bit rate : 29.2 Mb/s
Maximum bit rate : 33.0 Mb/s
Width : 1 920 pixels
Height : 1 080 pixels
Display aspect ratio : 16:9
Frame rate mode : Constant
Frame rate : 24.000 FPS
Color space : YUV
Chroma subsampling : 4:2:0
Bit depth : 8 bits
Scan type : Progressive
Bits/(Pixel*Frame) : 0.586
Stream size : 35.5 GiB (86%)
Default : Yes
Forced : No
Color range : Limited
Color primaries : BT.709
Transfer characteristics : BT.709
Matrix coefficients : BT.709

Audio
ID : 2
Format : DTS XLL
Format/Info : Digital Theater Systems
Commercial name : DTS-HD Master Audio
Codec ID : A_DTS
Duration : 2 h 54 min
Bit rate mode : Variable
Bit rate : 4 557 kb/s
Channel(s) : 6 channels
Channel layout : C L R Ls Rs LFE
Sampling rate : 48.0 kHz
Frame rate : 93.750 FPS (512 SPF)
Bit depth : 24 bits
Compression mode : Lossless
Stream size : 5.54 GiB (13%)
Title : DTS-HD MA 5.1
Language : Hindi
Default : Yes
Forced : No

Text #1
ID : 3
Format : PGS
Codec ID : S_HDMV/PGS
Codec ID/Info : Picture based subtitle format used on BDs/HD-DVDs
Duration : 2 h 46 min
Bit rate : 23.1 kb/s
Count of elements : 3950
Stream size : 27.6 MiB (0%)
Title : English
Language : English
Default : Yes
Forced : No

Text #2
ID : 4
Format : PGS
Codec ID : S_HDMV/PGS
Codec ID/Info : Picture based subtitle format used on BDs/HD-DVDs
Duration : 2 h 46 min
Bit rate : 14.3 kb/s
Count of elements : 3922
Stream size : 17.0 MiB (0%)
Title : Arabic
Language : Arabic
Default : No
Forced : No

Text #3
ID : 5
Format : PGS
Codec ID : S_HDMV/PGS
Codec ID/Info : Picture based subtitle format used on BDs/HD-DVDs
Duration : 2 h 47 min
Bit rate : 18.0 kb/s
Count of elements : 3710
Stream size : 21.6 MiB (0%)
Title : Chinese (Simplified)
Language : Chinese
Default : No
Forced : No

Text #4
ID : 6
Format : PGS
Codec ID : S_HDMV/PGS
Codec ID/Info : Picture based subtitle format used on BDs/HD-DVDs
Duration : 2 h 47 min
Bit rate : 18.7 kb/s
Count of elements : 3710
Stream size : 22.4 MiB (0%)
Title : Chinese (Traditional)
Language : Chinese
Default : No
Forced : No

Menu
00:00:00.000 : en:Chapter 1
00:02:09.820 : en:Chapter 2
00:12:05.083 : en:Chapter 3
00:18:37.000 : en:Chapter 4
00:26:28.833 : en:Chapter 5
00:35:16.500 : en:Chapter 6
00:45:01.916 : en:Chapter 7
00:55:43.000 : en:Chapter 8
01:00:25.625 : en:Chapter 9
01:15:02.833 : en:Chapter 10
01:20:30.250 : en:Chapter 11
01:28:17.000 : en:Chapter 12
01:40:05.416 : en:Chapter 13
01:46:08.375 : en:Chapter 14
02:00:07.541 : en:Chapter 15
02:04:06.833 : en:Chapter 16
02:12:45.833 : en:Chapter 17
02:18:24.625 : en:Chapter 18
02:30:19.791 : en:Chapter 19
02:43:24.125 : en:Chapter 20
02:46:22.000 : en:Chapter 21

G- Drive Full Movie 41 GB

G- Drive Download In Parts 4.5 GB

 

Agneepath (2012) BluRay 1080p DTS-HDMA 5.1 AVC REMUX – FraMeSToR.part01.rar – 4.4 GB

Agneepath (2012) BluRay 1080p DTS-HDMA 5.1 AVC REMUX – FraMeSToR.part02.rar – 4.4 GB

Agneepath (2012) BluRay 1080p DTS-HDMA 5.1 AVC REMUX – FraMeSToR.part03.rar – 4.4 GB

Agneepath (2012) BluRay 1080p DTS-HDMA 5.1 AVC REMUX – FraMeSToR.part04.rar – 4.4 GB

Agneepath (2012) BluRay 1080p DTS-HDMA 5.1 AVC REMUX – FraMeSToR.part05.rar – 4.4 GB

Agneepath (2012) BluRay 1080p DTS-HDMA 5.1 AVC REMUX – FraMeSToR.part06.rar – 4.4 GB

Agneepath (2012) BluRay 1080p DTS-HDMA 5.1 AVC REMUX – FraMeSToR.part07.rar – 4.4 GB

Agneepath (2012) BluRay 1080p DTS-HDMA 5.1 AVC REMUX – FraMeSToR.part08.rar – 4.4 GB

Agneepath (2012) BluRay 1080p DTS-HDMA 5.1 AVC REMUX – FraMeSToR.part09.rar – 4.4 GB

Agneepath (2012) BluRay 1080p DTS-HDMA 5.1 AVC REMUX – FraMeSToR.part10.rar – 1.6 GB

[How To Download]

 
Link Shorteners can be a pain, but they are our only way to maintain the servers. Your patience is highly appreciated and we hope our service can be worth it.

 

{ ------ High-Speed Download Server ----- }

 

If You Found A Dead Link Please Report Below In Comment Box


1
Leave a Reply

avatar
1 Comment threads
0 Thread replies
0 Followers
 
Most reacted comment
Hottest comment thread
1 Comment authors
Emilio Recent comment authors
  Subscribe  
newest oldest most voted
Notify of
Emilio
Guest

please upload 1080p version of Mission Kashmir thank you