Anari (1992) Hindi 1080p WebHD AVC DD 5.1 {Music Video} ESuBS By-DusIcTv


❤ Donate To keep US Alive ❤

Anari (1992) Hindi 1080p WebHD AVC DD 5.1 {Music Video} ESuBS By-DusIcTv

Anari (1992) Hindi 1080p WebHD AVC DD 5.1 {Music Video} ESuBS By-DusIcTv

:details:

General

Format                                   : Matroska
Format version                           : Version 4
File size                                : 1.24 GB
Overall bit rate                         : 4 702 kb/s

Writing application   : mkvmerge v34.0.0 (‘Sight and Seen’) 64-bit
Writing library   : libebml v1.3.7 + libmatroska v1.5.0

Video
ID                                       : 1
Format                                   : AVC
Format/Info                              : Advanced Video Codec
Format profile                           : [email protected]
Format settings                          : CABAC / 2 Ref Frames
Format settings, CABAC                   : Yes
Format settings, Reference frames        : 2 frames
Muxing mode                              : Container [email protected]
Codec ID                                 : V_MPEG4/ISO/AVC
Bit rate                                 : 4 060 kb/s
Width                                    : 1 920 pixels
Height                                   : 860 pixels
Display aspect ratio                     : 2.25:1
Frame rate mode                          : Constant
Frame rate                               : 25.000 FPS
Color space                              : YUV
Chroma subsampling                       : 4:2:0
Bit depth                                : 8 bits
Scan type                                : Progressive
Bits/(Pixel*Frame)                       : 0.098
Stream size                              : 90.5 MiB (86%)
Title                                    : DusIcTv
Default                                  : Yes
Forced                                   : No

Audio
ID                                       : 2
Format                                   : AC-3
Format/Info                              : Audio Coding 3
Commercial name                          : Dolby Digital
Codec ID                                 : A_AC3
Bit rate mode                            : Constant
Bit rate                                 : 640 kb/s
Channel(s)                               : 6 channels
Channel layout                           : L R C LFE Ls Rs
Sampling rate                            : 44.1 kHz
Frame rate                               : 28.711 FPS (1536 SPF)
Bit depth                                : 16 bits
Compression mode                         : Lossy
Delay relative to video                  : 29 ms
Stream size                              : 14.3 MiB (14%)
Title                                    : DusIcTv
Service kind                             : Complete Main
Default                                  : Yes
Forced                                   : No

:screenshots:







:download2:
01-Chhoti Si Pyarisi (Female) [By-DusIcTv].mkv   104.87 MB

https://thefileslocker.com/ktuhqtv4u9mh.html

02-Phoolon Sa Chehra Tera [By-DusIcTv].mkv   186.36 MB

https://thefileslocker.com/b7sf56zlx17e.html

03-Kya Mausam Aaya Hai [By-DusIcTv].mkv   211.83 MB

https://thefileslocker.com/vogh5g3he19o.html

04-Chhoti Si Pyarisi Nanhisi (Male) [By-DusIcTv].mkv   121.64 MB

https://thefileslocker.com/z7g1wfdyp6sj.html

05-Pyar Mein Dil De Diya [By-DusIcTv].mkv   181.79 MB

https://thefileslocker.com/3v8bn2qzcc12.html

06-Bum Akar Bum Ke [By-DusIcTv].mkv   171.83 MB

https://thefileslocker.com/25fbbz8173ti.html

07-Rona Chahe Rona [By-DusIcTv].mkv   193.45 MB

https://thefileslocker.com/kibh5fu6nng4.html

08-Jaane Jaan Jaane Jaan [By-DusIcTv].mkv   104.62 MB

https://thefileslocker.com/5oixvmzksckz.html

https://thefileslocker.com/weuxgcj1pf4q.html
https://uptobox.com/jkl3r3yj01ir
https://desiupload.to/f/vx1zzy-btmo01pizn5xb

Thanks To Special 26

Leave a Reply

avatar
  Subscribe  
Notify of