Anwar (2007) Hindi 1080p Untouched WebHD AVC DDP 5.1 {Music Video} ESuBS By-DusIcTv


❤ Donate To keep US Alive ❤

Anwar (2007) Hindi 1080p Untouched WebHD AVC DDP 5.1 {Music Video} ESuBS By-DusIcTv

Anwar (2007) Hindi 1080p Untouched WebHD AVC DDP 5.1 {Music Video} ESuBS By-DusIcTv

:details:

Format                                   : Matroska
Format version                           : Version 4
File size                                : 653 MB
Overall bit rate                         : 5 703 kb/s
Writing application   : mkvmerge v34.0.0 (‘Sight and Seen’) 64-bit
Writing library : libebml v1.3.7 + libmatroska v1.5.0

Video
ID                                       : 1
Format                                   : AVC
Format/Info                              : Advanced Video Codec
Format profile                           : [email protected]
Format settings                          : CABAC / 4 Ref Frames
Format settings, CABAC                   : Yes
Format settings, Reference frames        : 4 frames
Codec ID                                 : V_MPEG4/ISO/AVC
Bit rate                                 : 5 061 kb/s
Width                                    : 1 920 pixels
Height                                   : 1 080 pixels
Display aspect ratio                     : 16:9
Frame rate mode                          : Constant
Frame rate                               : 25.000 FPS
Color space                              : YUV
Chroma subsampling                       : 4:2:0
Bit depth                                : 8 bits
Scan type                                : Progressive
Bits/(Pixel*Frame)                       : 0.098
Stream size                              : 215 MiB (89%)
Title                                    : DusIcTv
Default                                  : Yes
Forced                                   : No
Color range                              : Limited
Color primaries                          : BT.709
Transfer characteristics                 : BT.709
Matrix coefficients                      : BT.709

Audio
ID                                       : 2
Format                                   : E-AC-3
Format/Info                              : Enhanced AC-3
Commercial name                          : Dolby Digital Plus
Codec ID                                 : A_EAC3
Bit rate mode                            : Constant
Bit rate                                 : 640 kb/s
Channel(s)                               : 6 channels
Channel layout                           : L R C LFE Ls Rs
Sampling rate                            : 48.0 kHz
Frame rate                               : 31.250 FPS (1536 SPF)
Compression mode                         : Lossy
Delay relative to video                  : 16 ms
Stream size                              : 27.2 MiB (11%)
Title                                    : DusIcTv
Service kind                             : Complete Main
Default                                  : Yes
Forced                                   : No

Text
ID                                       : 3
Format                                   : UTF-8
Codec ID                                 : S_TEXT/UTF8
Codec ID/Info                            : UTF-8 Plain Text
Bit rate                                 : 45 b/s
Count of elements                        : 50
Stream size                              : 1.62 KiB (0%)
Title                                    : SDH
Language                                 : English
Default                                  : No
Forced                                   : No

:screens:






:download2:
01-Maula Mere Maula [By-DusIcTv].mkv   242.19 MB

https://thefileslocker.com/v1c7blnfgpzh.html

02-Bangla Khula Khula [By-DusIcTv].mkv   163.09 MB

https://thefileslocker.com/0o3nnlrvpbsu.html

03-Dilbar Mera [By-DusIcTv].mkv   151.89 MB

https://thefileslocker.com/4kqey43ena9x.html

04-Javeda Zindagi [By-DusIcTv].mkv   96.83 MB

https://thefileslocker.com/i40lyv3impkg.html

https://thefileslocker.com/lgv4qhyud05e.html
https://desiupload.to/f/dm3mji-o7idxwbna9fc1
https://uptobox.com/li4xv9hy00i2

Thanks To Special 26

1
Leave a Reply

avatar
1 Comment threads
0 Thread replies
0 Followers
 
Most reacted comment
Hottest comment thread
1 Comment authors
sameer tagodia Recent comment authors
  Subscribe  
newest oldest most voted
Notify of
sameer tagodia
Member
sameer tagodia

thanks bro….please upload fiza movie songs in highest possible quality