Baazi (1995) Hindi 1080p Untouched WebHD AVC DD Plus 2.0 {Music Video} ESuBS By-DusIcTv


❤ Donate To keep US Alive ❤

Baazi (1995) Hindi 1080p Untouched WebHD AVC DD Plus 2.0 {Music Video} ESuBS By-DusIcTv

Baazi (1995) Hindi 1080p Untouched WebHD AVC DD Plus 2.0 {Music Video} ESuBS By-DusIcTv

:details:

General
Format                                   : Matroska
Format version                           : Version 4
File size                                : 2.21 GB
Overall bit rate                         : 12.1 Mb/s

Encoded date                             : UTC 2019-07-05 12:12:46
Writing application   : mkvmerge v35.0.0 (‘All The Love In The World’) 64-bit
Writing library      : libebml v1.3.9 + libmatroska v1.5.2

Video
ID                                       : 3
Format                                   : AVC
Format/Info                              : Advanced Video Codec
Format profile                           : [email protected]
Format settings                          : CABAC / 4 Ref Frames
Format settings, CABAC                   : Yes
Format settings, Reference frames        : 4 frames
Codec ID                                 : V_MPEG4/ISO/AVC
Bit rate                                 : 11.9 Mb/s
Width                                    : 1 920 pixels
Height                                   : 1 080 pixels
Display aspect ratio                     : 16:9
Frame rate mode                          : Constant
Frame rate                               : 25.000 FPS
Color space                              : YUV
Chroma subsampling                       : 4:2:0
Bit depth                                : 8 bits
Scan type                                : Progressive
Bits/(Pixel*Frame)                       : 0.230
Stream size                              : 442 MiB (98%)
Title                                    : DusIcTv
Default                                  : Yes
Forced                                   : No
Color range                              : Limited
Color primaries                          : BT.709
Transfer characteristics                 : BT.709
Matrix coefficients                      : BT.709

Audio
ID                                       : 1
Format                                   : E-AC-3
Format/Info                              : Enhanced AC-3
Commercial name                          : Dolby Digital Plus
Codec ID                                 : A_EAC3
Bit rate mode                            : Constant
Bit rate                                 : 224 kb/s
Channel(s)                               : 2 channels
Channel layout                           : L R
Sampling rate                            : 48.0 kHz
Frame rate                               : 31.250 FPS (1536 SPF)
Compression mode                         : Lossy
Delay relative to video                  : 32 ms
Stream size                              : 8.32 MiB (2%)
Title                                    : DusIcTv
Language                                 : English
Service kind                             : Complete Main
Default                                  : Yes
Forced                                   : No

Text
ID                                       : 2
Format                                   : UTF-8
Codec ID                                 : S_TEXT/UTF8
Codec ID/Info                            : UTF-8 Plain Text
Bit rate                                 : 41 b/s
Count of elements                        : 34
Stream size                              : 1.27 KiB (0%)
Default                                  : Yes
Forced                                   : No

:screenshots:












:download2:
01-Maine Kaha Mohataram [By-DusIcTv].mkv   450.26 MB

https://thefileslocker.com/uj968a1hti7e.html

02-Jaane Mujhe Kya Hua [By-DusIcTv].mkv   383.80 MB

https://thefileslocker.com/utfo4sd5pj5g.html

03-Dheere Dheere Aap Mere [By-DusIcTv].mkv   447.18 MB

https://thefileslocker.com/r79t8p4ffj7v.html

04-Na Jaane Kya Ho Gaya [By-DusIcTv].mkv   392.62 MB

https://thefileslocker.com/ls1ltedny73i.html

05-Dole Dole Dil Dole [By-DusIcTv].mkv   592.61 MB

https://thefileslocker.com/ed6z32jswfiw.html

https://thefileslocker.com/pk5ezg0fmnre.html
https://uptobox.com/0x1ob4qktc76
https://desiupload.to/f/100dz1-nm0p81o468reb

Thanks To Special 26

Leave a Reply

avatar
  Subscribe  
Notify of