Baazigar (1993) Hindi 1080p Untouched HDTV AVC {Music Video} ESuBS By-DusIcTv


❤ Donate To keep US Alive ❤

Baazigar (1993) Hindi 1080p Untouched HDTV AVC {Music Video} ESuBS By-DusIcTv

Baazigar (1993) Hindi 1080p Untouched HDTV AVC {Music Video} ESuBS By-DusIcTv

:details:

Format                                   : Matroska

Format version                           : Version 4
File size                                : 767 MB
Overall bit rate mode                    : Variable

Overall bit rate                         : 3 589 kb/s
Writing application       : mkvmerge v35.0.0 (‘All The Love In The World’) 64-bit
Writing library    : libebml v1.3.9 + libmatroska v1.5.2

Video
ID                                       : 1
Format                                   : AVC
Format/Info                              : Advanced Video Codec
Format profile                           : [email protected]
Format settings                          : CABAC / 4 Ref Frames
Format settings, CABAC                   : Yes
Format settings, Reference frames        : 4 frames
Codec ID                                 : V_MPEG4/ISO/AVC
Bit rate mode                            : Variable
Bit rate                                 : 3 500 kb/s
Width                                    : 1 920 pixels
Height                                   : 1 080 pixels
Display aspect ratio                     : 16:9
Frame rate mode                          : Constant
Frame rate                               : 25.000 FPS
Standard                                 : Component
Color space                              : YUV
Chroma subsampling                       : 4:2:0
Bit depth                                : 8 bits
Scan type                                : Progressive
Bits/(Pixel*Frame)                       : 0.068
Stream size                              : 143 MiB (97%)
Title                                    : DusIcTv
Default                                  : Yes
Forced                                   : No
Color range                              : Limited
Color primaries                          : BT.709
Transfer characteristics                 : BT.709
Matrix coefficients                      : BT.709

Audio
ID                                       : 2
Format                                   : AAC LC
Format/Info                              : Advanced Audio Codec
Codec ID                                 : A_AAC-2
Bit rate                                 : 93.4 kb/s
Channel(s)                               : 2 channels
Channel layout                           : L R
Sampling rate                            : 48.0 kHz
Frame rate                               : 46.875 FPS (1024 SPF)
Compression mode                         : Lossy
Delay relative to video                  : 11 ms
Stream size                              : 3.83 MiB (3%)
Title                                    : DusIcTv
Default                                  : Yes
Forced                                   : No

:screenshots:








:download2:
01-Kitabein Bahut Si [By-DusIcTv].mkv   147.19 MB

https://thefileslocker.com/yjao5nibtlae.html

02-Baazigar, O Baazigar [By-DusIcTv].mkv   188.95 MB

https://thefileslocker.com/yncbfdwrtfg0.html

03-Aye Mere Humsafar [By-DusIcTv].mkv   133.15 MB

https://thefileslocker.com/r75gtzchghog.html

04-Chhupana Bhi Nahi Aata [By-DusIcTv].mkv   105.86 MB

https://thefileslocker.com/t50wrtqh4h2r.html

05-Yeh Kaali Kaali Aankhein [By-DusIcTv].mkv   172.02 MB

https://thefileslocker.com/zhyrinw2q0jx.html

06-Baazigar, O Baazigar (Sad) [By-DusIcTv].mkv   20.20 MB

https://thefileslocker.com/jyoao41wz2hh.html

https://thefileslocker.com/ngdxuejnhn2v.html
https://desiupload.to/f/x8u5lh-3na3rhef50wvj
https://uptobox.com/hao6cowkwmta

Thanks To special 26

Leave a Reply

avatar
  Subscribe  
Notify of