Bajrangi Bhaijaan (2015) (MUSIC VIDEOS ALBUM) 1080p Blu-Ray Rip x264 DTS-HDMA 5.1 By-DusIcTv


~~~Desi Share.org~~~

PropellerAds

xxxxxxxxxxxxxxxxxxxxxxxxxxxxxxxxxxxxxxxxxxxxxxxxxxxxxxxxxxxxxxx
Bajrangi Bhaijaan (2015) (MUSIC VIDEOS ALBUM) 1080p Blu-Ray Rip x264 DTS-HDMA 5.1 By-DusIcTv
xxxxxxxxxxxxxxxxxxxxxxxxxxxxxxxxxxxxxxxxxxxxxxxxxxxxxxxxxxxxxxx

Media info
General
Format                                   : Matroska
Format version                           : Version 4
File size                                : 4.02 GB
Overall bit rate mode                    : Variable
Overall bit rate                         : 22.1 Mb/s
Encoded date                             : UTC 2019-08-30 12:32:04
Writing application                      : mkvmerge v36.0.0 (‘Is That Jazz?’) 32-bit
Writing library                          : libebml v1.3.9 + libmatroska v1.5.2

Video
ID                                       : 1
Format                                   : AVC
Format/Info                              : Advanced Video Codec
Format profile                           : [email protected]
Format settings                          : CABAC / 5 Ref Frames
Format settings, CABAC                   : Yes
Format settings, Reference frames        : 5 frames
Codec ID                                 : V_MPEG4/ISO/AVC
Bit rate                                 : 15.0 Mb/s
Width                                    : 1 920 pixels
Height                                   : 816 pixels
Display aspect ratio                     : 2.35:1
Frame rate mode                          : Constant
Frame rate                               : 24.000 FPS
Color space                              : YUV
Chroma subsampling                       : 4:2:0
Bit depth                                : 8 bits
Scan type                                : Progressive
Bits/(Pixel*Frame)                       : 0.399
Stream size                              : 464 MiB (68%)
Language                                 : English
Default                                  : Yes
Forced                                   : No
Color range                              : Limited
Color primaries                          : BT.709
Transfer characteristics                 : BT.709
Matrix coefficients                      : BT.709

Audio
ID                                       : 2
Format                                   : DTS ES XLL
Format/Info                              : Digital Theater Systems
Commercial name                          : DTS-HD Master Audio
Codec ID                                 : A_DTS
Bit rate mode                            : Variable
Bit rate                                 : 7 149 kb/s
Channel(s)                               : 8 channels
Channel layout                           : C L R Ls Rs LFE Lb Rb
Sampling rate                            : 48.0 kHz
Frame rate                               : 93.750 FPS (512 SPF)
Bit depth                                : 24 bits
Compression mode                         : Lossless
Delay relative to video                  : 7 ms
Stream size                              : 221 MiB (32%)
Language                                 : Hindi
Default                                  : Yes
Forced                                   : No

Text #1
ID                                       : 3
Format                                   : UTF-8
Codec ID                                 : S_TEXT/UTF8
Codec ID/Info                            : UTF-8 Plain Text
Bit rate                                 : 66 b/s
Count of elements                        : 72
Stream size                              : 2.08 KiB (0%)
Language                                 : English
Default                                  : Yes
Forced                                   : No

Text #2
ID                                       : 4
Format                                   : VobSub
Muxing mode                              : zlib
Codec ID                                 : S_VOBSUB
Codec ID/Info                            : Picture based subtitle format used on DVDs
Bit rate                                 : 4 268 b/s
Count of elements                        : 79
Stream size                              : 134 KiB (0%)
Language                                 : Arabic
Default                                  : No
Forced                                   : No

G-Drive Download

01-Selfie Le Le Re [By-DusIcTv].mkv – 685.7 MB

02-Tu Chahiye [By-DusIcTv].mkv – 477.5 MB

03-Chicken (Song) [By-DusIcTv].mkv – 584.9 MB

04-Tu Jo Mila (1st) [By-DusIcTv].mkv – 259.4 MB

05-Tu Jo Mila (2nd) [By-DusIcTv].mkv – 121.5 MB

06-Kuch Toh Bata Zindagi [By-DusIcTv].mkv – 413.8 MB

07-Bhar Do Jholi Meri [By-DusIcTv].mkv – 915.7 MB

08-Tu Jo Mila (3rd) [By-DusIcTv].mkv – 141.5 MB

09-Tu Jo Mila (End Roll) [By-DusIcTv].mkv – 518.1 MB


Link Shorteners can be a pain, but they are our only way to maintain the servers. Your patience is highly appreciated and we hope our service can be worth it.

 

If You Found A Dead Link Please Report Below In Comment Box


1
Leave a Reply

avatar
1 Comment threads
0 Thread replies
0 Followers
 
Most reacted comment
Hottest comment thread
1 Comment authors
Mehedi Hasan Recent comment authors
  Subscribe  
newest oldest most voted
Notify of
Mehedi Hasan
Guest
Mehedi Hasan

Plz Bro Salam-e Ishq Movie Ka Song Full HD Mai Upload Kardo. PLZ……. PLZ …….