Bandhan (1998) (MUSIC VIDEOS ALBUM) 1080p Untouched WebHD AVC AAC By-DusIcTv


~~~Desi Share.org~~~

PropellerAds

xxxxxxxxxxxxxxxxxxxxxxxxxxxxxxxxxxxxxxxxxxxxxxxxxxxxxxxxxxxxxxx
Bandhan (1998) (MUSIC VIDEOS ALBUM) 1080p Untouched WebHD AVC AAC By-DusIcTv
xxxxxxxxxxxxxxxxxxxxxxxxxxxxxxxxxxxxxxxxxxxxxxxxxxxxxxxxxxxxxxx

Media info
General
Format                                   : Matroska
Format version                           : Version 4
File size                                : 707 MB
Overall bit rate                         : 4 575 kb/s
Encoded date                             : UTC 2019-09-01 15:35:44
Writing application                      : mkvmerge v36.0.0 (‘Is That Jazz?’) 32-bit
Writing library                          : libebml v1.3.9 + libmatroska v1.5.2

Video
ID                                       : 1
Format                                   : AVC
Format/Info                              : Advanced Video Codec
Format profile                           : [email protected]
Format settings                          : CABAC / 1 Ref Frames
Format settings, CABAC                   : Yes
Format settings, Reference frames        : 1 frame
Format settings, GOP                     : M=1, N=25
Codec ID                                 : V_MPEG4/ISO/AVC
Bit rate mode                            : Constant
Bit rate                                 : 4 500 kb/s
Width                                    : 1 920 pixels
Height                                   : 1 080 pixels
Display aspect ratio                     : 16:9
Frame rate mode                          : Constant
Frame rate                               : 25.000 FPS
Color space                              : YUV
Chroma subsampling                       : 4:2:0
Bit depth                                : 8 bits
Scan type                                : Progressive
Bits/(Pixel*Frame)                       : 0.087
Stream size                              : 104 MiB (99%)
Default                                  : Yes
Forced                                   : No

Audio
ID                                       : 2
Format                                   : AAC LC
Format/Info                              : Advanced Audio Codec Low Complexity
Codec ID                                 : A_AAC-2
Bit rate                                 : 61.4 kb/s
Channel(s)                               : 2 channels
Channel layout                           : L R
Sampling rate                            : 48.0 kHz
Frame rate                               : 46.875 FPS (1024 SPF)
Compression mode                         : Lossy
Delay relative to video                  : 16 ms
Stream size                              : 1.42 MiB (1%)
Default                                  : Yes
Forced                                   : No

G-Drive Download

01-Bandhan (Title Song) [By-DusIcTv].mkv – 105.8 MB

02-Main Deewani Main Mastani [By-DusIcTv].mkv – 134.2 MB

03-Tere Naina Mere Naino Ki [By-DusIcTv].mkv – 167.9 MB

04-Chhora Phisal Gaya [By-DusIcTv].mkv – 147.7 MB

05-Balle Balle [By-DusIcTv].mkv – 152.2 MB

 


Link Shorteners can be a pain, but they are our only way to maintain the servers. Your patience is highly appreciated and we hope our service can be worth it.

 

If You Found A Dead Link Please Report Below In Comment Box


1
Leave a Reply

avatar
1 Comment threads
0 Thread replies
0 Followers
 
Most reacted comment
Hottest comment thread
1 Comment authors
Mehedi Hasan Recent comment authors
  Subscribe  
newest oldest most voted
Notify of
Mehedi Hasan
Guest
Mehedi Hasan

Plz Bro Salam-e Ishq Movie Ka Song Full HD Mai Upload Kardo. PLZ……. PLZ …….