Beta (1992) Hindi 1080p Untouched WebHD AVC DD Plus 2.0 {Music Video} ESuBS By-DusIcTv


❤ Donate To keep US Alive ❤

Beta (1992) Hindi 1080p Untouched WebHD AVC DD Plus 2.0 {Music Video} ESuBS By-DusIcTv

:details:
Format                                   : Matroska
Format version                           : Version 4
File size                                : 1.72 GB
Overall bit rate                         : 8 017 kb/s

Writing application  : mkvmerge v34.0.0 (‘Sight and Seen’) 64-bit
Writing library  : libebml v1.3.7 + libmatroska v1.5.0

Video
ID                                       : 1
Format                                   : AVC
Format/Info                              : Advanced Video Codec
Format profile                           : [email protected]
Format settings                          : CABAC / 4 Ref Frames
Format settings, CABAC                   : Yes
Format settings, Reference frames        : 4 frames
Codec ID                                 : V_MPEG4/ISO/AVC
Bit rate                                 : 7 791 kb/s
Width                                    : 1 920 pixels
Height                                   : 1 080 pixels
Display aspect ratio                     : 2.000
Original display aspect ratio            : 16:9
Frame rate mode                          : Constant
Frame rate                               : 25.000 FPS
Color space                              : YUV
Chroma subsampling                       : 4:2:0
Bit depth                                : 8 bits
Scan type                                : Progressive
Bits/(Pixel*Frame)                       : 0.150
Stream size                              : 189 MiB (97%)
Title                                    : DusIcTv
Default                                  : Yes
Forced                                   : No
Color range                              : Limited
Color primaries                          : BT.709
Transfer characteristics                 : BT.709
Matrix coefficients                      : BT.709

Audio
ID                                       : 2
Format                                   : E-AC-3
Format/Info                              : Enhanced AC-3
Commercial name                          : Dolby Digital Plus
Codec ID                                 : A_EAC3
Bit rate mode                            : Constant
Bit rate                                 : 224 kb/s
Channel(s)                               : 2 channels
Channel layout                           : L R
Sampling rate                            : 48.0 kHz
Frame rate                               : 31.250 FPS (1536 SPF)
Compression mode                         : Lossy
Delay relative to video                  : 24 ms
Stream size                              : 5.42 MiB (3%)
Title                                    : DusIcTv
Language                                 : Hindi
Service kind                             : Complete Main
Default                                  : Yes
Forced                                   : No

Text
ID                                       : 3
Format                                   : UTF-8
Codec ID                                 : S_TEXT/UTF8
Codec ID/Info                            : UTF-8 Plain Text
Bit rate                                 : 28 b/s
Count of elements                        : 24
Stream size                              : 563 Bytes (0%)
Title                                    : English [SDH]
Language                                 : English
Default                                  : Yes
Forced                                   : No

:screenshots:





:download2:
01-Kushiyon Ka Din Aaya Hai [By-DusIcTv].mkv   194.17 MB

https://thefileslocker.com/fx6ni87iqner.html

02-Dhak Dhak Karne Laga [By-DusIcTv].mkv   288.56 MB

https://thefileslocker.com/ug41pa1hdzjv.html

03-Koyal Se Teri Boli [By-DusIcTv].mkv   332.03 MB

https://thefileslocker.com/17at8kysek5r.html

04-Saiyan Ji Se Chupke [By-DusIcTv].mkv   631.89 MB

https://thefileslocker.com/mxwxyqj1gs0p.html

05-Sajna Main Teri [By-DusIcTv].mkv   322.87 MB

https://thefileslocker.com/rtlg8uv5ge00.html

https://thefileslocker.com/rzxetzssefb8.html
https://desiupload.to/f/kw7pzf-8gco446tffjk6
https://uptobox.com/43bla3gubw8a

1
Leave a Reply

avatar
1 Comment threads
0 Thread replies
0 Followers
 
Most reacted comment
Hottest comment thread
1 Comment authors
mickymouse Recent comment authors
  Subscribe  
newest oldest most voted
Notify of
mickymouse
Member
mickymouse

audio quality suck