Bhagam Bhag (2006) (MUSIC VIDEOS ALBUM) 1080p Blu-Ray Rip x264 DTS-HDMA 5.1 By-DusIcTv


~~~Desi Share.org~~~

PropellerAds

❤ Donate To keep US Alive ❤

xxxxxxxxxxxxxxxxxxxxxxxxxxxxxxxxxxxxxxxxxxxxxxxxxxxxxxxxxxxxxxx
Bhagam Bhag (2006) (MUSIC VIDEOS ALBUM) 1080p Blu-Ray Rip x264 DTS-HDMA 5.1 By-DusIcTv
xxxxxxxxxxxxxxxxxxxxxxxxxxxxxxxxxxxxxxxxxxxxxxxxxxxxxxxxxxxxxxx

Media info
General
Format                                   : Matroska
Format version                           : Version 4
File size                                : 2.02 GB
Overall bit rate mode                    : Variable
Overall bit rate                         : 18.3 Mb/s
Encoded date                             : UTC 2019-09-01 14:29:35
Writing application                      : mkvmerge v36.0.0 (‘Is That Jazz?’) 32-bit
Writing library                          : libebml v1.3.9 + libmatroska v1.5.2

Video
ID                                       : 1
Format                                   : AVC
Format/Info                              : Advanced Video Codec
Format profile                           : [email protected]
Format settings                          : CABAC / 5 Ref Frames
Format settings, CABAC                   : Yes
Format settings, Reference frames        : 5 frames
Codec ID                                 : V_MPEG4/ISO/AVC
Bit rate                                 : 13.1 Mb/s
Width                                    : 1 920 pixels
Height                                   : 816 pixels
Display aspect ratio                     : 2.35:1
Frame rate mode                          : Constant
Frame rate                               : 24.000 FPS
Color space                              : YUV
Chroma subsampling                       : 4:2:0
Bit depth                                : 8 bits
Scan type                                : Progressive
Bits/(Pixel*Frame)                       : 0.348
Stream size                              : 403 MiB (72%)
Language                                 : English
Default                                  : Yes
Forced                                   : No
Color range                              : Limited
Color primaries                          : BT.709
Transfer characteristics                 : BT.709
Matrix coefficients                      : BT.709

Audio
ID                                       : 2
Format                                   : DTS XLL
Format/Info                              : Digital Theater Systems
Commercial name                          : DTS-HD Master Audio
Codec ID                                 : A_DTS
Bit rate mode                            : Variable
Bit rate                                 : 5 195 kb/s
Channel(s)                               : 6 channels
Channel layout                           : C L R Ls Rs LFE
Sampling rate                            : 48.0 kHz
Frame rate                               : 93.750 FPS (512 SPF)
Bit depth                                : 24 bits
Compression mode                         : Lossless
Delay relative to video                  : 4 ms
Stream size                              : 160 MiB (28%)
Default                                  : Yes
Forced                                   : No

Text
ID                                       : 3
Format                                   : PGS
Muxing mode                              : zlib
Codec ID                                 : S_HDMV/PGS
Codec ID/Info                            : Picture based subtitle format used on BDs/HD-DVDs
Bit rate                                 : 27.0 kb/s
Count of elements                        : 104
Stream size                              : 731 KiB (0%)
Title                                    : English
Language                                 : English
Default                                  : No
Forced                                   : No

 

G-Drive Download

01-Signal [By-DusIcTv].mkv – 563.1 MB

02-Tere Bin [By-DusIcTv].mkv – 427.2 MB

03-Afreen [By-DusIcTv].mkv – 811.9 MB

04-Bhagam Bhag (End Roll) [By-DusIcTv].mkv – 269.3 MB

[How To Download]

 
Link Shorteners can be a pain, but they are our only way to maintain the servers. Your patience is highly appreciated and we hope our service can be worth it.

 

{ ------ High-Speed Download Server ----- }

 

If You Found A Dead Link Please Report Below In Comment Box


Leave a Reply

avatar
  Subscribe  
Notify of