Chup Chup ke (2006) Hindi 1080p Untouched WebHD AVC DD 5.1 {Music Video}


~~~Desi Share.org~~~

PropellerAds

❤ Donate To keep US Alive ❤

Thank To Special 26

Format                         : Matroska
Format version                 : Version 4
File size                      : 761 MB
Overall bit rate mode          : Variable
Overall bit rate               : 6 029 kb/s
Writing library : libebml v1.3.6 + libmatroska v1.4.9

Video
ID                             : 1
Format                         : AVC
Format/Info                    : Advanced Video Codec
Format profile                 : [email protected]
Format settings                : CABAC / 3 Ref Frames
Format settings, CABAC         : Yes
Format settings, ReFrames      : 3 frames
Codec ID                       : V_MPEG4/ISO/AVC
Bit rate mode                  : Variable
Bit rate                       : 5 643 kb/s
Maximum bit rate               : 8 700 kb/s
Width                          : 1 920 pixels
Height                         : 1 080 pixels
Display aspect ratio           : 16:9
Frame rate mode                : Constant
Frame rate                     : 25.000 FPS
Color space                    : YUV
Chroma subsampling             : 4:2:0
Bit depth                      : 8 bits
Scan type                      : Progressive
Bits/(Pixel*Frame)             : 0.109
Stream size                    : 112 MiB (94%)
Default                        : Yes
Forced                         : No

Audio
ID                             : 2
Format                         : AC-3
Format/Info                    : Audio Coding 3
Commercial name                : Dolby Digital
Codec ID                       : A_AC3
Bit rate mode                  : Constant
Bit rate                       : 384 kb/s
Channel(s)                     : 6 channels
Channel layout                 : L R C LFE Ls Rs
Sampling rate                  : 48.0 kHz
Frame rate                     : 31.250 FPS (1536 SPF)
Bit depth                      : 16 bits
Compression mode               : Lossy
Delay relative to video        : 16 ms
Stream size                    : 7.60 MiB (6%)
Service kind                   : Complete Main
Default                        : Yes
Forced                         : No


ScreenShots

c87de42bc7c735c7b1e2ca881ee744f0.png
a47426d277f99308f425b7398a90aa66.png
29fff60ec052675afd0279603dc34162.png
43eeb129be340764b1006a417827840f.png
621352b637997f8a89a913b5fa3b331f.png
692f789da315c44e142c6507a6a8584d.png
c8be6765e59f314c927872a838255514.png
88ad6053cce86e82e36bf4f2f957704c.png
edb930efb5b197c06e2e98ebe3a8610c.png
1c9b3836cc6850026175ae8c13dc7296.png

{ G-drive } Download  Link 

[How To Download]

 
Link Shorteners can be a pain, but they are our only way to maintain the servers. Your patience is highly appreciated and we hope our service can be worth it.

 

{ ------ High-Speed Download Server ----- }

 

If You Found A Dead Link Please Report Below In Comment Box


Leave a Reply

avatar
  Subscribe  
Notify of