Cricket World Cup 2019 Final New Zealand Vs England Full Match Free Download


~~~Desi Share.org~~~

PropellerAds

Format : Matroska
Format version : Version 4
File size : 4.38 GiB
Duration : 2 h 22 min
Overall bit rate mode : Variable
Overall bit rate : 4 385 kb/s
Encoded date : UTC 2019-08-13 01:12:12
Writing application : mkvmerge v29.0.0 (‘Like It Or Not’) 32-bit
Writing library : libebml v1.3.6 + libmatroska v1.4.9 / Lavf58.27.103

Video
ID : 1
Format : AVC
Format/Info : Advanced Video Codec
Format profile : [email protected]
Format settings : CABAC / 2 Ref Frames
Format settings, CABAC : Yes
Format settings, ReFrames : 2 frames
Codec ID : V_MPEG4/ISO/AVC
Duration : 2 h 22 min
Bit rate mode : Variable
Bit rate : 4 127 kb/s
Maximum bit rate : 5 000 kb/s
Width : 1 280 pixels
Height : 720 pixels
Display aspect ratio : 16:9
Frame rate mode : Constant
Frame rate : 50.000 FPS
Color space : YUV
Chroma subsampling : 4:2:0
Bit depth : 8 bits
Scan type : Progressive
Bits/(Pixel*Frame) : 0.090
Stream size : 4.12 GiB (94%)
Default : Yes
Forced : No

Audio
ID : 2
Format : AAC LC
Format/Info : Advanced Audio Codec Low Complexity
Codec ID : A_AAC-2
Duration : 2 h 22 min
Bit rate : 254 kb/s
Channel(s) : 2 channels
Channel layout : L R
Sampling rate : 32.0 kHz
Frame rate : 31.250 FPS (1024 SPF)
Compression mode : Lossy
Delay relative to video : 30 ms
Stream size : 260 MiB (6%)
Default : Yes
Forced : No

41117c464158f9dfb9d3d9bea7d4ffc3.png
2322fbe51f601de0e19af901fb9a51c4.png
b87c1bc955df6af968c3bb0679296614.png
1597ac8963039f9e33069de63c220ca7.png
06a819b7c76d22516f67dd9d8abc9c2f.png
f5990e5c4e9b4a902ee365bbbeee2267.png

Cricket.World.Cup.2019.Final.New.Zealand.V.England-004.mkv – 4.4 GB

Cricket.World.Cup.2019.Final.New.Zealand.V.England.)-003.mkv – 4.4 GB

Cricket.World.Cup.2019.Final.New.Zealand.V.England-002.mkv – 4.4 GB

Cricket.World.Cup.2019.Final.New.Zealand.V.England.-001.mkv – 4.4 GB

Cricket.World.Cup.2019.Final.New.Zealand.V.England-005.mkv – 2.9 GB


Link Shorteners can be a pain, but they are our only way to maintain the servers. Your patience is highly appreciated and we hope our service can be worth it.

 

If You Found A Dead Link Please Report Below In Comment Box


Leave a Reply

avatar
  Subscribe  
Notify of