Criminal (1995) Hindi 1080p WebHD AVC DD Plus 2.0 {Music Video} ESuBS By-DusIcTv


❤ Donate To keep US Alive ❤

Criminal (1995) Hindi 1080p WebHD AVC DD Plus 2.0 {Music Video} ESuBS By-DusIcTv

Criminal (1995) Hindi 1080p WebHD AVC DD Plus 2.0 {Music Video} ESuBS By-DusIcTv

:details:

General
Format                                   : Matroska
Format version                           : Version 4
File size                                : 2.23 GB
Overall bit rate                         : 14.7 Mb/s

Writing application    : mkvmerge v35.0.0 (‘All The Love In The World’) 64-bit
Writing library   : libebml v1.3.9 + libmatroska v1.5.2

Video
ID                                       : 3
Format                                   : AVC
Format/Info                              : Advanced Video Codec
Format profile                           : [email protected]
Format settings                          : CABAC / 4 Ref Frames
Format settings, CABAC                   : Yes
Format settings, Reference frames        : 4 frames
Codec ID                                 : V_MPEG4/ISO/AVC
Bit rate                                 : 14.5 Mb/s
Width                                    : 1 920 pixels
Height                                   : 816 pixels
Display aspect ratio                     : 2.35:1
Frame rate mode                          : Constant
Frame rate                               : 25.000 FPS
Color space                              : YUV
Chroma subsampling                       : 4:2:0
Bit depth                                : 8 bits
Scan type                                : Progressive
Bits/(Pixel*Frame)                       : 0.370
Stream size                              : 476 MiB (98%)
Default                                  : Yes
Forced                                   : No
Color range                              : Limited
Color primaries                          : BT.709
Transfer characteristics                 : BT.709
Matrix coefficients                      : BT.709

Audio
ID                                       : 1
Format                                   : E-AC-3
Format/Info                              : Enhanced AC-3
Commercial name                          : Dolby Digital Plus
Codec ID                                 : A_EAC3
Bit rate mode                            : Constant
Bit rate                                 : 224 kb/s
Channel(s)                               : 2 channels
Channel layout                           : L R
Sampling rate                            : 48.0 kHz
Frame rate                               : 31.250 FPS (1536 SPF)
Compression mode                         : Lossy
Delay relative to video                  : 24 ms
Stream size                              : 7.36 MiB (2%)
Title                                    : DusIcTv
Service kind                             : Complete Main
Default                                  : Yes
Forced                                   : No

Text
ID                                       : 2
Format                                   : UTF-8
Codec ID                                 : S_TEXT/UTF8
Codec ID/Info                            : UTF-8 Plain Text
Bit rate                                 : 54 b/s
Count of elements                        : 57
Stream size                              : 1.62 KiB (0%)
Title                                    : DusIcTv
Default                                  : Yes
Forced                                   : No

:screens:












:download2:
01-Janu Janu Janu [By-DusIcTv].mkv   483.63 MB

https://thefileslocker.com/gql5ldb1lox7.html

02-Mujhko Chhupa Le [By-DusIcTv].mkv   404.51 MB

https://thefileslocker.com/cbk1kfn32qeb.html

03-Tu Mile Dil Khile [By-DusIcTv].mkv   596.31 MB

https://thefileslocker.com/fdszx994ibof.html

04-Kisi Ka Tu Hoja [By-DusIcTv].mkv   436.44 MB

https://thefileslocker.com/tkolp3hhi5fq.html

05-Tu Mile Dil Khile (II) [By-DusIcTv].mkv   184.82 MB

https://thefileslocker.com/ymdzinfzf5a8.html

06-Tu Mile Dil Khile (III) [By-DusIcTv].mkv   180.19 MB

https://thefileslocker.com/3fxs0z28j7wa.html

https://thefileslocker.com/s73vdtrjnpph.html
https://desiupload.to/f/8bj9cr-3cwbeegxgbxe7
https://uptobox.com/uid10hb8fqls

Leave a Reply

avatar
  Subscribe  
Notify of