Dhoom 2 (2006) Bollywood Movie All Video Music Album 1080p Bluray x264 DTS-HDMA


~~~Desi Share.org~~~

PropellerAds

❤ Donate To keep US Alive ❤

Video
ID : 1
Format : AVC
Format/Info : Advanced Video Codec
Format profile : [email protected]
Format settings : CABAC / 5 Ref Frames
Format settings, CABAC : Yes
Format settings, RefFrames : 5 frames
Codec ID : V_MPEG4/ISO/AVC
Duration : 4 min 38 s
Bit rate : 14.0 Mb/s
Width : 1 920 pixels
Height : 816 pixels
Display aspect ratio : 2.35:1
Frame rate mode : Constant
Frame rate : 24.000 FPS
Color space : YUV
Chroma subsampling : 4:2:0
Bit depth : 8 bits
Scan type : Progressive
Bits/(Pixel*Frame) : 0.372
Stream size : 454 MiB (88%)

Default : Yes
Forced : No
Color range : Limited
Color primaries : BT.709
Transfer characteristics : BT.709
Matrix coefficients : BT.709

Audio
ID : 2
Format : DTS
Format/Info : Digital Theater Systems
Codec ID : A_DTS
Duration : 4 min 38 s
Bit rate mode : Constant
Bit rate : 1 509 kb/s
Channel(s) : 6 channels
Channel layout : C L R Ls Rs LFE
Sampling rate : 48.0 kHz
Frame rate : 93.750 FPS (512 SPF)
Bit depth : 16 bits
Compression mode : Lossy
Stream size : 50.2 MiB (10%)
Language : Hindi
Default : Yes
Forced : No


01-Dhoom Again [1080p Bluray x264 DTS-HDMA Song Bollywood Movie Dhoom 2 2006] By ~MaLiK ZEE~.mkv – 374.7 MB

02-Touch Me [1080p Bluray x264 DTS-HDMA Song Bollywood Movie Dhoom 2 2006] By ~MaLiK ZEE~.mkv – 592.5 MB

03-My Name Is Ali [1080p Bluray x264 DTS-HDMA Song Bollywood Movie Dhoom 2 2006] By ~MaLiK ZEE~.mkv – 514.2 MB

04-Crazy Kiya Re [1080p Bluray x264 DTS-HDMA Song Bollywood Movie Dhoom 2 2006] By ~MaLiK ZEE~.mkv – 552.8 MB

05-Dil Laga Na [1080p Bluray x264 DTS-HDMA Song Bollywood Movie Dhoom 2 2006] By ~MaLiK ZEE~.mkv – 563.4 MB

06-Dhoom Again End Roll [1080p Bluray x264 DTS-HDMA Song Bollywood Movie Dhoom 2 2006] By ~MaLiK ZEE~.mkv – 262.2 MB

[How To Download]

 
Link Shorteners can be a pain, but they are our only way to maintain the servers. Your patience is highly appreciated and we hope our service can be worth it.

 

{ ------ High-Speed Download Server ----- }

 

If You Found A Dead Link Please Report Below In Comment Box


Leave a Reply

avatar
  Subscribe  
Notify of