Dilwale (1994) Hindi 1080p Untouched WebHD AVC {Music Video} ESuBS By-DusIcTv


❤ Donate To keep US Alive ❤

Dilwale (1994) Hindi 1080p Untouched WebHD AVC {Music Video} ESuBS By-DusIcTv

Dilwale (1994) Hindi 1080p Untouched WebHD AVC {Music Video} ESuBS By-DusIcTv

:details:

General

Format                                   : Matroska
Format version                           : Version 4
File size                      : 755 MB
Overall bit rate                         : 2 207 kb/s

Writing application     : mkvmerge v35.0.0 (‘All The Love In The World’) 64-bit
Writing library   : libebml v1.3.9 + libmatroska v1.5.2

Video
ID                                       : 1
Format                                   : AVC
Format/Info                              : Advanced Video Codec
Format profile                           : [email protected]
Format settings                          : CABAC / 4 Ref Frames
Format settings, CABAC                   : Yes
Format settings, Reference frames        : 4 frames
Codec ID                                 : V_MPEG4/ISO/AVC
Bit rate                                 : 2 077 kb/s
Width                                    : 1 920 pixels
Height                                   : 1 080 pixels
Display aspect ratio                     : 16:9
Frame rate mode                          : Constant
Frame rate                               : 25.000 FPS
Color space                              : YUV
Chroma subsampling                       : 4:2:0
Bit depth                                : 8 bits
Scan type                                : Progressive
Bits/(Pixel*Frame)                       : 0.040
Stream size                              : 55.5 MiB (94%)
Language                                 : English
Default                                  : No
Forced                                   : No

Audio
ID                                       : 2
Format                                   : AAC LC
Format/Info                              : Advanced Audio Codec
Codec ID                                 : A_AAC-2
Bit rate                                 : 128 kb/s
Channel(s)                               : 2 channels
Channel layout                           : L R
Sampling rate                            : 48.0 kHz
Frame rate                               : 46.875 FPS (1024 SPF)
Compression mode                         : Lossy
Delay relative to video                  : 10 ms
Stream size                              : 3.42 MiB (6%)
Language                                 : Hindi
Default                                  : No
Forced                                   : No

:screenshots:














:download2:
01-Ek Aisi Ladki Thi [By-DusIcTv].mkv   58.98 MB

https://thefileslocker.com/5477g8yxx81b.html

02-Kitna Haseen Chahra [By-DusIcTv].mkv   157.69 MB

https://thefileslocker.com/k8gr5ro92kws.html

03-Saaton Janam Mein Tere [By-DusIcTv].mkv   145.18 MB

https://thefileslocker.com/luldi5dl9aus.html

04-Jeeta Tha Jis Ke Liye [By-DusIcTv].mkv   173.17 MB

https://thefileslocker.com/zl91thtwytvj.html

05-Mauka Milega To Hum Bata Denge [By-DusIcTv].mkv   150.16 MB

https://thefileslocker.com/qovgcwai55wr.html

06-Jeeta Hoon Jis Ke Liye [By-DusIcTv].mkv   70.33 MB

https://thefileslocker.com/s3y2oj53iffj.html

https://thefileslocker.com/jskbgeqkxc80.html
https://desiupload.to/f/6rz7dw-92k872oihvhw4
https://uptobox.com/x6fpi1nf7epi

Thanks To Special 26 

Leave a Reply

avatar
  Subscribe  
Notify of