Dilwale (2015) HQ 1080p REM-Bluray x264 DTS-HDMA MSubs [DDR] | G- Drive | 13 GB |


~~~Desi Share.org~~~

PropellerAds

❤ Donate To keep US Alive ❤

Source = BD-Remux @ HDT
Format : Matroska
File size : 13.2 GiB
Duration : 2h 34mn
Overall bit rate : 12.2 Mbps

Video
Format : AVC
Format profile :
Bit rate : 10 000 Kbps
Width : 1 920 pixels
Height : 800 pixels
Display aspect ratio : 2.40:1
Frame rate mode : Constant
Frame rate : 24.000 fps
Bit depth : 8 bits
Scan type : Progressive
Stream size : 10.8 GiB (82%)

Audio #1
Format : DTS
Format profile : MA / Core
Bit rate mode : Variable / Constant
Bit rate : 2 227 Kbps / 768 Kbps
Channel(s) : 6 channels
Channel positions : Front: L C R, Side: L R, LFE
Sampling rate : 48.0 KHz
Bit depth : 16 bits
Compression mode : Lossless / Lossy
Stream size : 2.40 GiB (18%)
Default : Yes

Language : Hindi

Chapters: YES

G- Drive Download 13 GB

[How To Download]

 
Link Shorteners can be a pain, but they are our only way to maintain the servers. Your patience is highly appreciated and we hope our service can be worth it.

 

{ ------ High-Speed Download Server ----- }

 

If You Found A Dead Link Please Report Below In Comment Box


Leave a Reply

avatar
  Subscribe  
Notify of