Dilwale (2015) Repack 1080p BluRay REMUX AVC Atmos – KRaLiMaRKo | G – Drive | 39 GB|


~~~Desi Share.org~~~

PropellerAds

❤ Donate To keep US Alive ❤

Format : Matroska
Format version : Version 4
File size : 40.0 GiB
Duration : 2 h 33 min
Overall bit rate mode : Variable
Overall bit rate : 37.2 Mb/s
Movie name : Dilwale 2015 Repack 1080p Blu-ray Remux AVC Atmos – KRaLiMaRKo
Encoded date : UTC 2019-02-20 04:28:34
Writing application : mkvmerge v31.0.0 (‘Dolores In A Shoestand’) 64-bit
Writing library : libebml v1.3.6 + libmatroska v1.4.9

Video
ID : 1
Format : AVC
Format/Info : Advanced Video Codec
Format profile : [email protected]
Format settings : CABAC / 4 Ref Frames
Format settings, CABAC : Yes
Format settings, ReFrames : 4 frames
Format settings, GOP : M=3, N=18
Codec ID : V_MPEG4/ISO/AVC
Duration : 2 h 33 min
Bit rate mode : Variable
Bit rate : 30.0 Mb/s
Maximum bit rate : 40.0 Mb/s
Width : 1 920 pixels
Height : 1 080 pixels
Display aspect ratio : 16:9
Frame rate mode : Constant
Frame rate : 24.000 FPS
Standard : NTSC
Color space : YUV
Chroma subsampling : 4:2:0
Bit depth : 8 bits
Scan type : Progressive
Bits/(Pixel*Frame) : 0.602
Stream size : 32.2 GiB (81%)
Language : Hindi
Default : Yes
Forced : No
Color range : Limited
Color primaries : BT.709
Transfer characteristics : BT.709
Matrix coefficients : BT.709

Audio #1
ID : 2
Format : MLP FBA 16-ch
Format/Info : Meridian Lossless Packing FBA with 16-channel presentation
Commercial name : Dolby TrueHD with Dolby Atmos
Codec ID : A_TRUEHD
Duration : 2 h 33 min
Bit rate mode : Variable
Bit rate : 5 613 kb/s
Maximum bit rate : 9 390 kb/s
Channel(s) : 8 channels
Channel layout : L R C LFE Ls Rs Lb Rb
Sampling rate : 48.0 kHz
Frame rate : 1 200.000 FPS (40 SPF)
Compression mode : Lossless
Delay relative to video : 6 s 958 ms
Stream size : 6.02 GiB (15%)
Language : Hindi
Default : Yes
Forced : No
Number of dynamic objects : 15
Bed channel count : 1 channel
Bed channel configuration : LFE

Audio #2
ID : 3
Format : E-AC-3
Format/Info : Enhanced AC-3
Commercial name : Dolby Digital Plus
Format profile : Blu-ray Disc
Codec ID : A_EAC3
Duration : 2 h 33 min
Bit rate mode : Constant
Bit rate : 1 536 kb/s
Channel(s) : 8 channels
Channel layout : L R C LFE Ls Rs Lb Rb
Sampling rate : 48.0 kHz
Frame rate : 31.250 FPS (1536 SPF)
Compression mode : Lossy
Stream size : 1.65 GiB (4%)
Language : Hindi
Service kind : Complete Main
Default : No
Forced : No

Text
ID : 4
Format : PGS
Codec ID : S_HDMV/PGS
Codec ID/Info : Picture based subtitle format used on BDs/HD-DVDs
Duration : 2 h 31 min
Bit rate : 38.0 kb/s
Count of elements : 4614
Stream size : 41.1 MiB (0%)
Language : English
Default : No
Forced : No

Menu
00:00:00.000 : :Start Credits
00:02:53.625 : :Dotes on Brother
00:14:16.000 : :Manma Emotion Jaage…
00:16:35.750 : :Crossing Paths
00:31:31.042 : :15 Years Ago, Bulgaria
00:37:53.750 : :The Promise
00:51:25.875 : :The Shock
01:06:02.833 : :Gerua…
01:10:33.750 : :Sharing Feelings
01:22:03.917 : :Betrayal
01:30:53.458 : :Story of Ramlal & Pogo
01:38:12.833 : :Patch-up PLans
01:47:18.875 : :Janam Janam…(i)
01:50:39.125 : :Car & Drugs Disposed
02:00:00.625 : :The Reasons To Steal
02:04:00.042 : :Unveiling The Truth
02:12:15.000 : :Daayre…
02:15:38.000 : :Misunderstanding Solved
02:21:16.625 : :Janam Janam…(ii)
02:21:57.583 : :The New Beginning
02:31:39.000 : :Tukur Tukur…

c5eb952f150d91e9acac92c29e39e97d.png
5e08ea864925b757338c47f97b59a076.png
da967d06fa6273e70d2bb81cb54f15b0.png
be02b04a848de3e0b7cade32186b35ee.png
3972845be680d585dc5d014c7d01ec53.png
965906dbcee8fb65faf95ee5d77a8b14.png
7f316de80939fe339b50679496616fd8.png
1b2d472a607ef088c29171db10ae8bd8.png
7efd5a17e8244114f19d606c0dc02ba2.png

G- Drive Download Full Movie 39 GB

G- Drive Parts Download 4.5 GB

Dilwale (2015) Repack 1080p BluRay REMUX AVC Atmos – KRaLiMaRKo.part10.rar – 538.6 MB

Dilwale (2015) Repack 1080p BluRay REMUX AVC Atmos – KRaLiMaRKo.part09.rar – 4.4 GB

Dilwale (2015) Repack 1080p BluRay REMUX AVC Atmos – KRaLiMaRKo.part08.rar – 4.4 GB

Dilwale (2015) Repack 1080p BluRay REMUX AVC Atmos – KRaLiMaRKo.part07.rar – 4.4 GB

Dilwale (2015) Repack 1080p BluRay REMUX AVC Atmos – KRaLiMaRKo.part06.rar – 4.4 GB

Dilwale (2015) Repack 1080p BluRay REMUX AVC Atmos – KRaLiMaRKo.part05.rar – 4.4 GB

Dilwale (2015) Repack 1080p BluRay REMUX AVC Atmos – KRaLiMaRKo.part04.rar – 4.4 GB

Dilwale (2015) Repack 1080p BluRay REMUX AVC Atmos – KRaLiMaRKo.part03.rar – 4.4 GB

Dilwale (2015) Repack 1080p BluRay REMUX AVC Atmos – KRaLiMaRKo.part02.rar – 4.4 GB

Dilwale (2015) Repack 1080p BluRay REMUX AVC Atmos – KRaLiMaRKo.part01.rar – 4.4 GB

[How To Download]

 
Link Shorteners can be a pain, but they are our only way to maintain the servers. Your patience is highly appreciated and we hope our service can be worth it.

 

{ ------ High-Speed Download Server ----- }

 

If You Found A Dead Link Please Report Below In Comment Box


2
Leave a Reply

avatar
1 Comment threads
1 Thread replies
0 Followers
 
Most reacted comment
Hottest comment thread
2 Comment authors
SaturnWebEmilio Recent comment authors
  Subscribe  
newest oldest most voted
Notify of
Emilio
Guest

If possible, can you upload King Uncle 1993 1080p ENG SUB with SRK thanks