Fashion (2008) (MUSIC VIDEO ALBUM) Untouched – BD50 DTS-HDMA 5.1 ESuBS By-DusIcTv


~~~Desi Share.org~~~

PropellerAds

Media info

General
ID                                       : 1 (0x1)
Format                                   : BDAV
Format                                   : M2ts
Format/Info                              : Blu-ray Video
File size                                : 2.54 GB
Overall bit rate mode                    : Variable
Overall bit rate                         : 20.5 Mb/s
Maximum Overall bit rate                 : 35.5 Mb/s

Video
ID                                       : 4113 (0x1011)
Menu ID                                  : 1 (0x1)
Format                                   : AVC
Format/Info                              : Advanced Video Codec
Format profile                           : [email protected]
Format settings                          : CABAC / 4 Ref Frames
Format settings, CABAC                   : Yes
Format settings, Reference frames        : 4 frames
Codec ID                                 : 27
Bit rate mode                            : Variable
Bit rate                                 : 19.2 Mb/s
Maximum bit rate                         : 35.0 Mb/s
Width                                    : 1 920 pixels
Height                                   : 1 080 pixels
Display aspect ratio                     : 16:9
Frame rate                               : 24.000 FPS
Standard                                 : NTSC
Color space                              : YUV
Chroma subsampling                       : 4:2:0
Bit depth                                : 8 bits
Scan type                                : Progressive
Bits/(Pixel*Frame)                       : 0.385
Stream size                              : 477 MiB (94%)
Color range                              : Limited
Color primaries                          : BT.709
Transfer characteristics                 : BT.709
Matrix coefficients                      : BT.709

Audio #1
ID                                       : 4352 (0x1100)
Menu ID                                  : 1 (0x1)
Format                                   : AC-3
Format/Info                              : Audio Coding 3
Commercial name                          : Dolby Digital
Codec ID                                 : 129
Bit rate mode                            : Constant
Bit rate                                 : 320 kb/s
Channel(s)                               : 6 channels
Channel layout                           : L R C LFE Ls Rs
Sampling rate                            : 48.0 kHz
Frame rate                               : 31.250 FPS (1536 SPF)
Bit depth                                : 16 bits
Compression mode                         : Lossy
Stream size                              : 7.95 MiB (2%)
Language                                 : English
Service kind                             : Complete Main

Audio #2
ID                                       : 4353 (0x1101)
Menu ID                                  : 1 (0x1)
Format                                   : AC-3
Format/Info                              : Audio Coding 3
Commercial name                          : Dolby Digital
Codec ID                                 : 129
Bit rate mode                            : Constant
Bit rate                                 : 128 kb/s
Channel(s)                               : 2 channels
Channel layout                           : L R
Sampling rate                            : 48.0 kHz
Frame rate                               : 31.250 FPS (1536 SPF)
Bit depth                                : 16 bits
Compression mode                         : Lossy
Stream size                              : 3.18 MiB (1%)
Language                                 : English
Service kind                             : Complete Main

G- Drive Download
01-Aashiyana [By-DusIcTv].m2ts – 409.0 MB

02-Fashion Ka Jalwa [By-DusIcTv].m2ts – 508.4 MB

03-Kuchh Khaas [By-DusIcTv].m2ts – 500.7 MB

04-Mar Jawaan [By-DusIcTv].m2ts – 380.4 MB

05-Fashion Ka Jalwa (Remix) [By-DusIcTv].m2ts – 504.5 MB

06-Mar Jawan (Remix) [By-DusIcTv].m2ts – 300.9 MB


Link Shorteners can be a pain, but they are our only way to maintain the servers. Your patience is highly appreciated and we hope our service can be worth it.

 

If You Found A Dead Link Please Report Below In Comment Box


3
Leave a Reply

avatar
1 Comment threads
2 Thread replies
0 Followers
 
Most reacted comment
Hottest comment thread
2 Comment authors
SaturnWebfozan Recent comment authors
  Subscribe  
newest oldest most voted
Notify of
fozan
Guest
fozan

plz upload bahubali the beginning 2015 hindi movie in bd50 plz