FIDA (2004) Hindi UNTOUCHED WEB DL 1080P AVC AAC [DRC] | G- Drive | 2.9 GB |


❤ Donate To keep US Alive ❤

FIDA (2004) UNTOUCHED.WEB.DL.1080P.AVC.AAC.[DRC]

:details:

Format                                  : MPEG-4
Format profile                          : Base Media
Codec ID                : isom (isom/iso2/avc1/mp41)
File size                                : 2.09 GiB
Duration                                : 1 h 57 min
Overall bit rate                        : 2 546 kb/s
Writing application                      : Lavf58.9.100

Video
ID                                      : 1
Format                                  : AVC
Format/Info                              : Advanced Video Codec
Format profile                          : [email protected]
Format settings                          : CABAC / 5 Ref Frames
Format settings, CABAC                  : Yes
Format settings, Reference frames        : 5 frames
Codec ID                                : avc1
Codec ID/Info                            : Advanced Video Coding
Duration                                : 1 h 57 min
Bit rate                                : 2 500 kb/s
Width                                    : 1 920 pixels
Height                                  : 1 080 pixels
Display aspect ratio                    : 16:9
Frame rate mode                          : Constant
Frame rate                              : 25.000 FPS
Color space                              : YUV
Chroma subsampling                      : 4:2:0
Bit depth                                : 8 bits
Scan type                                : Progressive
Bits/(Pixel*Frame)                      : 0.048
Stream size                              : 1.98 GiB (95%)
Writing library                          : x264 core 152

Audio
ID                                      : 2
Format                                  : AAC LC
Format/Info                   : Advanced Audio Codec
Codec ID                                : mp4a-40-2
Duration                                : 1 h 57 min
Bit rate mode                            : Constant
Bit rate                                : 128 kb/s
Channel(s)                              : 2 channels
Channel layout                          : L R
Sampling rate                            : 44.1 kHz
Frame rate                              : 43.066 FPS (1024 SPF)
Compression mode                        : Lossy
Stream size                              : 107 MiB (5%)
Default                                  : Yes
Alternate group                          : 1

:screens:









:download2:

Leave a Reply

avatar
  Subscribe  
Notify of