Final Destination 3 2006 Multi Blu-ray 1080p HEVC TrueHD 5.1[En+Hindi]-DDR


~~~Desi Share.org~~~

PropellerAds

❤ Donate To keep US Alive ❤

Thanks To Mike Khan

Source : FHD Bluray

Format                                  : Matroska
File size                                : 7.36 GiB
Duration                                : 1 h 32 min
Overall bit rate mode                    : Variable
Overall bit rate                        : 11.4 Mb/s

Video
Format                                  : HEVC
Format/Info                              : High Efficiency Video Coding
Format profile                          : Main [email protected]@High
Bit rate                                : 6 913 kb/s
Width                                    : 1 920 pixels
Height                                  : 808 pixels
Bit depth                                : 10 bits
Color primaries                          : BT.709

Audio #1
ID                                      : 2
Format                                  : MLP FBA
Format/Info                              : Meridian Lossless Packing FBA
Commercial name                          : Dolby TrueHD
Codec ID                                : A_TRUEHD
Duration                                : 1 h 32 min
Bit rate mode                            : Variable
Bit rate                                : 3 523 kb/s
Maximum bit rate                        : 5 103 kb/s
Channel(s)                              : 6 channels
Channel layout                          : L R C LFE Ls Rs
Sampling rate                            : 48.0 kHz
Frame rate                              : 1 200.000 FPS (40 SPF)
Compression mode                        : Lossless
Stream size                              : 2.28 GiB (31%)
Language                                : English
Default                                  : Yes
Forced                                  : No

Audio #2
ID                                      : 3
Format                                  : AC-3
Format/Info                              : Audio Coding 3
Commercial name                          : Dolby Digital
Codec ID                                : A_AC3
Duration                                : 1 h 32 min
Bit rate mode                            : Constant
Bit rate                                : 640 kb/s
Channel(s)                              : 6 channels
Channel layout                          : L R C LFE Ls Rs
Sampling rate                            : 48.0 kHz
Frame rate                              : 31.250 FPS (1536 SPF)
Bit depth                                : 16 bits
Compression mode                        : Lossy
Stream size                              : 425 MiB (6%)
Language                                : English
Service kind                            : Complete Main
Default                                  : No
Forced                                  : No

Audio #3
ID                                      : 4
Format                                  : AAC LC
Format/Info                              : Advanced Audio Codec Low Complexity
Codec ID                                : A_AAC-2
Duration                                : 1 h 32 min
Bit rate                                : 192 kb/s
Channel(s)                              : 6 channels
Channel layout                          : C L R Ls Rs LFE
Sampling rate                            : 44.1 kHz
Frame rate                              : 43.066 FPS (1024 SPF)
Compression mode                        : Lossy
Delay relative to video                  : 1 s 27 ms
Stream size                              : 128 MiB (2%)
Language                                : Hindi

Download Link {G-drive} 7.36 GB

 

[How To Download]

 
Link Shorteners can be a pain, but they are our only way to maintain the servers. Your patience is highly appreciated and we hope our service can be worth it.

 

{ ------ High-Speed Download Server ----- }

 

If You Found A Dead Link Please Report Below In Comment Box


Leave a Reply

avatar
  Subscribe  
Notify of