Final Destination 5 2011 Multi 1080p Bluray HEVC TrueHD 5.1-[En+Hindi]-DDR


~~~Desi Share.org~~~

PropellerAds

Source : FHD Bluray

Format                                  : Matroska
File size                                : 6.93 GiB
Duration                                : 1 h 31 min
Overall bit rate mode                    : Variable
Overall bit rate                        : 10.8 Mb/s

Video
Format                                  : HEVC
Format/Info                              : High Efficiency Video Coding
Format profile                          : Main [email protected]@High
Bit rate                                : 6 970 kb/s
Width                                    : 1 920 pixels
Height                                  : 792 pixels
Bit depth                                : 10 bits
Color primaries                          : BT.709

Audio #1
ID                                      : 2
Format                                  : DTS XLL
Format/Info                              : Digital Theater Systems
Commercial name                          : DTS-HD Master Audio
Codec ID                                : A_DTS
Duration                                : 1 h 31 min
Bit rate mode                            : Variable
Bit rate                                : 3 682 kb/s
Channel(s)                              : 6 channels
Channel layout                          : C L R Ls Rs LFE
Sampling rate                            : 48.0 kHz
Frame rate                              : 93.750 FPS (512 SPF)
Bit depth                                : 24 bits
Compression mode                        : Lossless
Stream size                              : 2.36 GiB (34%)
Language                                : English
Default                                  : Yes
Forced                                  : No

Audio #2
ID                                      : 3
Format                                  : AAC LC
Format/Info                              : Advanced Audio Codec Low Complexity
Codec ID                                : A_AAC-2
Duration                                : 1 h 31 min
Bit rate                                : 128 kb/s
Channel(s)                              : 2 channels
Channel layout                          : L R
Sampling rate                            : 44.1 kHz
Frame rate                              : 43.066 FPS (1024 SPF)
Compression mode                        : Lossy
Delay relative to video                  : 23 ms
Stream size                              : 84.2 MiB (1%)
Language                                : Hindi

Download Link {G-drive} 6.93 GiB

 

 

 


Link Shorteners can be a pain, but they are our only way to maintain the servers. Your patience is highly appreciated and we hope our service can be worth it.

 

If You Found A Dead Link Please Report Below In Comment Box


Leave a Reply

avatar
  Subscribe  
Notify of