God Tussi Great Ho (2008) (MUSIC VIDEOS ALBUM) 1080p Untouched WebHD AVC DDP 2.0 ESuBS By-DusIcTv


~~~Desi Share.org~~~

PropellerAds

❤ Donate To keep US Alive ❤

xxxxxxxxxxxxxxxxxxxxxxxxxxxxxxxxxxxxxxxxxxxxxxxxxxxxxxxxxxxxxxxxxxxxxxxxxxxxxxxxxxxxxxxxxxxxxxxxxxx
God Tussi Great Ho (2008) (MUSIC VIDEOS ALBUM) 1080p Untouched WebHD AVC DDP 2.0 ESuBS By-DusIcTv
xxxxxxxxxxxxxxxxxxxxxxxxxxxxxxxxxxxxxxxxxxxxxxxxxxxxxxxxxxxxxxxxxxxxxxxxxxxxxxxxxxxxxxxxxxxxxxxxxxx

General
Format : Matroska
Format version : Version 4
File size : 1.52 GB
Overall bit rate mode : Variable
Overall bit rate : 10.8 Mb/s
Encoded date : UTC 2019-11-02 18:13:58
Writing application : mkvmerge v38.0.0 (‘The Silent Type’) 64-bit
Writing library : libebml v1.3.9 + libmatroska v1.5.2

Video
ID : 1
Format : AVC
Format/Info : Advanced Video Codec
Format profile : [email protected]
Format settings : CABAC / 4 Ref Frames
Format settings, CABAC : Yes
Format settings, Reference frames : 4 frames
Codec ID : V_MPEG4/ISO/AVC
Bit rate mode : Variable
Bit rate : 10.6 Mb/s
Maximum bit rate : 15.0 Mb/s
Width : 1 920 pixels
Height : 1 080 pixels
Display aspect ratio : 16:9
Frame rate mode : Constant
Frame rate : 25.000 FPS
Color space : YUV
Chroma subsampling : 4:2:0
Bit depth : 8 bits
Scan type : Progressive
Bits/(Pixel*Frame) : 0.204
Stream size : 311 MiB (98%)
Title : By-DusIcTv
Default : Yes
Forced : No
Color range : Limited
Color primaries : BT.709
Transfer characteristics : BT.709
Matrix coefficients : BT.709

Audio
ID : 2
Format : E-AC-3
Format/Info : Enhanced AC-3
Commercial name : Dolby Digital Plus
Codec ID : A_EAC3
Bit rate mode : Constant
Bit rate : 224 kb/s
Channel(s) : 2 channels
Channel layout : L R
Sampling rate : 48.0 kHz
Frame rate : 31.250 FPS (1536 SPF)
Compression mode : Lossy
Delay relative to video : 8 ms
Stream size : 6.60 MiB (2%)
Title : By-DusIcTv
Language : Hindi
Service kind : Complete Main
Default : Yes
Forced : No

Text
ID : 3
Format : UTF-8
Codec ID : S_TEXT/UTF8
Codec ID/Info : UTF-8 Plain Text
Bit rate : 58 b/s
Count of elements : 51
Stream size : 1.65 KiB (0%)
Title : By-DusIcTv
Language : English
Default : Yes
Forced : No

01-Tujhe Aksa Beach Ghuma Du [By-DusIcTv].mkv – 262.2 MB

02-Let_s Party [By-DusIcTv].mkv – 468.8 MB

03-God Tussi Great Ho [By-DusIcTv].mkv – 317.8 MB

04-Tumko Dekha [By-DusIcTv].mkv – 228.0 MB

05-Lal Chunariya [By-DusIcTv].mkv – 288.2 MB

[How To Download]

 
Link Shorteners can be a pain, but they are our only way to maintain the servers. Your patience is highly appreciated and we hope our service can be worth it.

 

{ ------ High-Speed Download Server ----- }

 

If You Found A Dead Link Please Report Below In Comment Box


1
Leave a Reply

avatar
1 Comment threads
0 Thread replies
0 Followers
 
Most reacted comment
Hottest comment thread
1 Comment authors
lethal111 Recent comment authors
  Subscribe  
newest oldest most voted
Notify of
lethal111
Guest
lethal111

SIR, PLZ POST MR.INDIA 1987 BD50 UNTOUCHED MOVIE NOW!