Heart Touching Music Video Collection {Vol 2} 1080p HDTV Untouched x264 – Hon3y


~~~Desi Share.org~~~

PropellerAds

❤ Donate To keep US Alive ❤

Format profile : Base Media / Version 2
Codec ID : mp42 (mp42/mp41)
File size : 272 MiB
Duration : 4 min 34 s
Overall bit rate mode : Variable
Overall bit rate : 8 314 kb/s
Encoded date : UTC 2015-05-04 19:41:26
Tagged date : UTC 2015-05-05 16:06:14

Video
ID : 1
Format : AVC
Format/Info : Advanced Video Codec
Format profile : [email protected]
Format settings : CABAC / 3 Ref Frames
Format settings, CABAC : Yes
Format settings, ReFrames : 3 frames
Codec ID : avc1
Codec ID/Info : Advanced Video Coding
Duration : 4 min 34 s
Source duration : 4 min 34 s
Bit rate : 7 992 kb/s
Width : 1 920 pixels
Height : 1 080 pixels
Display aspect ratio : 16:9
Frame rate mode : Variable
Frame rate : 29.970 (30000/1001) FPS
Minimum frame rate : 29.970 FPS
Maximum frame rate : 30.000 FPS
Standard : NTSC
Color space : YUV
Chroma subsampling : 4:2:0
Bit depth : 8 bits
Scan type : Progressive
Bits/(Pixel*Frame) : 0.129
Stream size : 262 MiB (96%)
Source stream size : 262 MiB (96%)
Language : English
Encoded date : UTC 2015-05-04 19:41:26
Tagged date : UTC 2015-05-04 19:41:26
Color range : Limited
Color primaries : BT.709
Transfer characteristics : BT.709
Matrix coefficients : BT.709
mdhd_Duration : 274674
Codec configuration box : avcC

Audio
ID : 2
Format : AAC LC
Format/Info : Advanced Audio Codec Low Complexity
Codec ID : mp4a-40-2
Duration : 4 min 34 s
Source duration : 4 min 34 s
Bit rate mode : Variable
Bit rate : 317 kb/s
Maximum bit rate : 424 kb/s
Channel(s) : 2 channels
Channel layout : L R
Sampling rate : 48.0 kHz
Frame rate : 46.875 FPS (1024 SPF)
Compression mode : Lossy
Stream size : 10.4 MiB (4%)
Source stream size : 10.4 MiB (4%)
Language : English
Encoded date : UTC 2015-05-04 19:41:27
Tagged date : UTC 2015-05-04 19:41:27
mdhd_Duration : 274731

 

[Hon3y] 36 China Town – Dil Tumhare Bina.mp4 – 260.7 MB

[Hon3y] Aao Pyar Karen – Kyun Phool Khilte.mp4 – 315.8 MB

[Hon3y] Akele Hum Akele Tum – Raja Ko Rani Se.mp4 – 252.6 MB

[Hon3y] Baazigar – Ae Mere Humsafar.mp4 – 317.8 MB

[Hon3y] Dil Hai Tumhaara – Dil Hai Tumhara.mp4 – 361.1 MB

[Hon3y] Dilwale – Jeeta Hoon Jiske Liye.mp4 – 279.8 MB

[Hon3y] Dilwale – Jeeta Tha Jiske Liye.mp4 – 562.3 MB

[Hon3y] Dilwale – Kitna Haseen Chehra.mp4 – 374.8 MB

[Hon3y] Dilwale – Mauka Milega To Hum.mp4 – 355.0 MB

[Hon3y] Fida – Maine Jisko Chaha.mp4 – 327.3 MB

[Hon3y] Gopi Kishan – Chhatri Na Khol Barsaat Mein.mp4 – 284.9 MB

[Hon3y] Gopi Kishan – Haaye Hukku.mp4 – 309.6 MB

[Hon3y] Kunwara – Na Heera Na Moti.mp4 – 233.5 MB

[Hon3y] Kurukshetra – Aap Ka Aana Dil Dhadkana.mp4 – 271.7 MB

[Hon3y] Kurukshetra – Janam Tere Liye Raat Din.mp4 – 276.8 MB

[Hon3y] Kyon Ki – Kyon Ki Itna Pyaar.mp4 – 272.2 MB

[Hon3y] Main Khiladi Tu Anari – Main Khiladi Tu Anari.mp4 – 352.0 MB

[Hon3y] Mohra – Ae Kaash Kahin Aisa Hota.mp4 – 296.6 MB

[Hon3y] Mohra – Tip Tip Barsa.mp4 – 360.6 MB

[Hon3y] Phool Aur Kaante – Tumse Milne Ko.mp4 – 289.2 MB

[Hon3y] Pyaar To Hona Hi Tha – Aaj Hai Sagaai.mp4 – 314.8 MB

[Hon3y] Sadak – Tumhein Apna Banane Ki.mp4 – 336.2 MB

[Hon3y] Sirf Tum – Dilbar Dilbar.mp4 – 312.1 MB

[Hon3y] Sirf Tum – Pehli Pehli Baar Mohabbat Ki Hai.mp4 – 449.8 MB

[Hon3y] Taarzan The Wonder Car – O Sajan.mp4 – 267.3 MB

[How To Download]

 
Link Shorteners can be a pain, but they are our only way to maintain the servers. Your patience is highly appreciated and we hope our service can be worth it.

 

{ ------ High-Speed Download Server ----- }

 

If You Found A Dead Link Please Report Below In Comment Box


6
Leave a Reply

avatar
2 Comment threads
4 Thread replies
1 Followers
 
Most reacted comment
Hottest comment thread
2 Comment authors
SaturnWebMehedi Hasan Recent comment authors
  Subscribe  
newest oldest most voted
Notify of
Mehedi Hasan
Guest
Mehedi Hasan

thanks for share brooooo……………

Mehedi Hasan
Guest
Mehedi Hasan

more vol quick upload bro….