Insan (2005) Hindi 1080p Untouched WebHD AVC DD Plus 2.0 {Music Video} ESuBS By-DusIcTv


❤ Donate To keep US Alive ❤

Insan (2005) Hindi 1080p Untouched WebHD AVC DD Plus 2.0 {Music Video} ESuBS By-DusIcTv

Insan (2005) Hindi 1080p Untouched WebHD AVC DD Plus 2.0 {Music Video} ESuBS By-DusIcTv

:details:


Format                                   : Matroska

Format version                           : Version 4
File size                               : 746 MB
Overall bit rate mode                    : Variable

Overall bit rate                         : 8 304 kb/s
Movie name                               : DusIcTv
Encoded date                             : UTC 2019-04-17 16:22:43
Writing application     : mkvmerge v32.0.0 (‘Astral Progressions’) 32-bit
Writing library   : libebml v1.3.7 + libmatroska v1.5.0

Video
ID                                       : 1
Format                                   : AVC
Format/Info                              : Advanced Video Codec
Format profile                           : [email protected]
Format settings                          : CABAC / 4 Ref Frames
Format settings, CABAC                   : Yes
Format settings, Reference frames        : 4 frames
Codec ID                                 : V_MPEG4/ISO/AVC
Bit rate mode                            : Variable
Bit rate                                 : 8 101 kb/s
Maximum bit rate                         : 20.0 Mb/s
Width                                    : 1 920 pixels
Height                                   : 1 080 pixels
Display aspect ratio                     : 16:9
Frame rate mode                          : Constant
Frame rate                               : 25.000 FPS
Color space                              : YUV
Chroma subsampling                       : 4:2:0
Bit depth                                : 8 bits
Scan type                                : Progressive
Bits/(Pixel*Frame)                       : 0.156
Stream size                              : 250 MiB (97%)
Title                                    : DusIcTv
Writing library                          : x264 core 148 r2715 7e75228
Default                                  : Yes
Forced                                   : No

Audio #1
ID                                       : 2
Format                                   : E-AC-3
Format/Info                              : Enhanced AC-3
Commercial name                          : Dolby Digital Plus
Codec ID                                 : A_EAC3
Bit rate mode                            : Constant
Bit rate                                 : 128 kb/s
Channel(s)                               : 2 channels
Channel layout                           : L R
Sampling rate                            : 48.0 kHz
Frame rate                               : 31.250 FPS (1536 SPF)
Compression mode                         : Lossy
Delay relative to video                  : 16 ms
Stream size                              : 3.96 MiB (2%)
Title                                    : DusIcTv
Language                                 : Hindi
Service kind                             : Complete Main
Default                                  : Yes
Forced                                   : No

Audio #2
ID                                       : 4
Format                                   : AC-3
Format/Info                              : Audio Coding 3
Commercial name                          : Dolby Digital
Codec ID                                 : A_AC3
Duration                                 : 4 min 19 s
Bit rate mode                            : Constant
Bit rate                                 : 128 kb/s
Channel(s)                               : 2 channels
Channel layout                           : L R
Sampling rate                            : 48.0 kHz
Frame rate                               : 31.250 FPS (1536 SPF)
Bit depth                                : 16 bits
Compression mode                         : Lossy
Delay relative to video                  : 16 ms
Stream size                              : 3.96 MiB (2%)
Title                                    : DusIcTv
Language                                 : Hindi
Service kind                             : Complete Main
Default                                  : No
Forced                                   : No

Text
ID                                       : 3
Format                                   : UTF-8
Codec ID                                 : S_TEXT/UTF8
Codec ID/Info                            : UTF-8 Plain Text
Duration                                 : 4 min 12 s
Bit rate                                 : 85 b/s
Count of elements                        : 43
Stream size                              : 2.63 KiB (0%)
Title                                    : DusIcTv
Language                                 : English
Default                                  : Yes
Forced                                   : Yes

:screens:















:download2:
01-Chunri [By-DusIcTv].mkv   258.37 MB

https://thefileslocker.com/e4v9l3puz79u.html

02-Is Tarah Deewane [By-DusIcTv].mkv   111.14 MB

https://thefileslocker.com/98wxc1rj7hk5.html

03-Rabba Mere Rabba [By-DusIcTv].mkv   77.13 MB

https://thefileslocker.com/w9dpuxbzjafi.html

04-Rain Rain [By-DusIcTv].mkv   300.05 MB

https://thefileslocker.com/58robljyr01a.html

https://thefileslocker.com/hcbyh9hz1dcx.html
https://desiupload.to/f/cfgi2t-zedqi6drcc1ad
https://uptobox.com/7zvqc4y5u53c

Thanks To Special 26

Leave a Reply

avatar
  Subscribe  
Notify of