Jabariya Jodi (2019) (MUSIC VIDEOS ALBUM) 1080p Untouched WebHD AVC DD 2.0 By-DusIcTv


~~~Desi Share.org~~~

PropellerAds

❤ Donate To keep US Alive ❤

Jabariya Jodi (2019) (MUSIC VIDEOS ALBUM) 1080p Untouched WebHD AVC DD 2.0 By-DusIcTv

xxxxxxxxxxxxxxxxxxxxxxxxxxxxxxxxxxxxxxxxxxxxxxxxxxxxxxxxxxxxxxxxxxxxxxxxxxxxxxxxxxxxxxxxxxxxxxxxxxx
Jabariya Jodi (2019) (MUSIC VIDEOS ALBUM) 1080p Untouched WebHD AVC DD 2.0 By-DusIcTv
xxxxxxxxxxxxxxxxxxxxxxxxxxxxxxxxxxxxxxxxxxxxxxxxxxxxxxxxxxxxxxxxxxxxxxxxxxxxxxxxxxxxxxxxxxxxxxxxxxx

:details:

Format : Matroska
Format version : Version 4
File size : 523 MB
Overall bit rate : 2 382 kb/s
Encoded date : UTC 2019-10-06 15:35:52
Writing application : mkvmerge v36.0.0 (‘Is That Jazz?’) 32-bit
Writing library : libebml v1.3.9 + libmatroska v1.5.2

Video
ID : 1
Format : AVC
Format/Info : Advanced Video Codec
Format profile : [email protected]
Format settings : CABAC / 4 Ref Frames
Format settings, CABAC : Yes
Format settings, Reference frames : 4 frames
Codec ID : V_MPEG4/ISO/AVC
Bit rate : 2 220 kb/s
Width : 1 920 pixels
Height : 1 080 pixels
Display aspect ratio : 16:9
Frame rate mode : Constant
Frame rate : 25.000 FPS
Color space : YUV
Chroma subsampling : 4:2:0
Bit depth : 8 bits
Scan type : Progressive
Bits/(Pixel*Frame) : 0.043
Stream size : 78.3 MiB (93%)
Default : Yes
Forced : No

Audio
ID : 2
Format : AC-3
Format/Info : Audio Coding 3
Commercial name : Dolby Digital
Codec ID : A_AC3
Bit rate mode : Constant
Bit rate : 160 kb/s
Channel(s) : 2 channels
Channel layout : L R
Sampling rate : 48.0 kHz
Frame rate : 31.250 FPS (1536 SPF)
Bit depth : 16 bits
Compression mode : Lossy
Stream size : 5.65 MiB (7%)
Language : English
Service kind : Complete Main
Default : Yes
Forced : No

:screens:









:download2:
01-Dhoonde Akhiyaan [By-DusIcTv].mkv   84.06 MB

https://thefileslocker.com/rrnk8pcfjfvn.html

02-Pinky (High Hill) [By-DusIcTv].mkv   16.62 MB

https://thefileslocker.com/u17rg9v2qh7w.html

03-Zilla Hilela [By-DusIcTv].mkv   55.08 MB

https://thefileslocker.com/ein9vvutccmq.html

04-Dhoonde Akhiyaan (2nd) [By-DusIcTv].mkv   49.92 MB

https://thefileslocker.com/ep9wesiwd1jl.html

05-Macchardani [By-DusIcTv].mkv   63.31 MB

https://thefileslocker.com/mm6vybdyqa1j.html

06-Khwabfaroshi [By-DusIcTv].mkv   75.72 MB

https://thefileslocker.com/3e3vmhfdtn0w.html

07-Ki Honda Pyaar [By-DusIcTv].mkv   68.68 MB

https://thefileslocker.com/49bzssmkjofl.html

08-Dhoonde Akhiyaan (3rd) [By-DusIcTv].mkv   34.39 MB

https://thefileslocker.com/w79z8l8qu51q.html

09-Khadke Glassy _ Zilla Hilela (End Roll) [By-DusIcTv].mkv   76.13 MB

https://thefileslocker.com/v6dlaa21op72.html

https://thefileslocker.com/z0n4jgem9ofd.html
https://uptobox.com/adc1nkjz8knm

[How To Download]

 
Link Shorteners can be a pain, but they are our only way to maintain the servers. Your patience is highly appreciated and we hope our service can be worth it.

 

{ ------ High-Speed Download Server ----- }

 

If You Found A Dead Link Please Report Below In Comment Box


Leave a Reply

avatar
  Subscribe  
Notify of