Khandaani Shafakhana (2019) (MUSIC VIDEOS ALBUM) 1080p WebHD AVC DDP 5.1 By-DusIcTv


❤ Donate To keep US Alive ❤

Khandaani Shafakhana (2019) (MUSIC VIDEOS ALBUM) 1080p WebHD AVC DDP 5.1 By-DusIcTv


xxxxxxxxxxxxxxxxxxxxxxxxxxxxxxxxxxxxxxxxxxxxxxxxxxxxxxxxxxxxxxxxxxxxxxxxxxxxxxxxxxxxxxxxxxxxxxxxxxx
Khandaani Shafakhana (2019) (MUSIC VIDEOS ALBUM) 1080p WebHD AVC DDP 5.1 By-DusIcTv
xxxxxxxxxxxxxxxxxxxxxxxxxxxxxxxxxxxxxxxxxxxxxxxxxxxxxxxxxxxxxxxxxxxxxxxxxxxxxxxxxxxxxxxxxxxxxxxxxxx

:details:

Format : Matroska
Format version : Version 4
File size : 1.28 GB
Overall bit rate : 10.4 Mb/s
Writing application : mkvmerge v36.0.0 (‘Is That Jazz?’) 64-bit
Writing library : libebml v1.3.9 + libmatroska v1.5.2

Video
ID : 1
Format : AVC
Format/Info : Advanced Video Codec
Format profile : [email protected]
Format settings : CABAC / 4 Ref Frames
Format settings, CABAC : Yes
Format settings, Reference frames : 4 frames
Codec ID : V_MPEG4/ISO/AVC
Bit rate mode : Constant
Bit rate : 10 000 kb/s
Width : 1 920 pixels
Height : 816 pixels
Display aspect ratio : 2.35:1
Frame rate mode : Constant
Frame rate : 24.000 FPS
Color space : YUV
Chroma subsampling : 4:2:0
Bit depth : 8 bits
Scan type : Progressive
Bits/(Pixel*Frame) : 0.266
Stream size : 277 MiB (94%)
Default : Yes
Forced : No
Color range : Limited
Color primaries : BT.709
Transfer characteristics : BT.709
Matrix coefficients : BT.709

Audio
ID : 2
Format : E-AC-3
Format/Info : Enhanced AC-3
Commercial name : Dolby Digital Plus
Codec ID : A_EAC3
Bit rate mode : Constant
Bit rate : 640 kb/s
Channel(s) : 6 channels
Channel layout : L R C LFE Ls Rs
Sampling rate : 48.0 kHz
Frame rate : 31.250 FPS (1536 SPF)
Compression mode : Lossy
Delay relative to video : 16 ms
Stream size : 18.0 MiB (6%)
Title : [By-DusIcTv]
Language : Hindi
Service kind : Complete Main
Default : No
Forced : No

Text
ID : 3
Format : UTF-8
Codec ID : S_TEXT/UTF8
Codec ID/Info : UTF-8 Plain Text
Bit rate : 81 b/s
Count of elements : 68
Stream size : 2.35 KiB (0%)
Title : [By-DusIcTv]
Language : English
Default : No
Forced : No

:screens:








Credit Goes To : 24x HD @ BWT.

:download2:
01-Saans To Le Le [By-DusIcTv].mkv   295.41 MBhttps://thefileslocker.com/m29vbiw5v6dh.html

02-Udd Jaa [By-DusIcTv].mkv   507.77 MB

https://thefileslocker.com/8x9n7ninfhm6.html

03-Chadd Gyaa Paara [By-DusIcTv].mkv   116.64 MB

https://thefileslocker.com/n9ilviejfsry.html

04-Bheege Mann [By-DusIcTv].mkv   195.88 MB

https://thefileslocker.com/ca8wn75xcnvv.html

05-Koka End Roll [By-DusIcTv].mkv   201.74 MB

https://thefileslocker.com/xh2ip6q5ae5q.html

https://thefileslocker.com/nlfjr4s55yzf.html

Leave a Reply

avatar
  Subscribe  
Notify of