Khushi (2003) (MUSIC VIDEOS ALBUM) 1080p Untouched WebHD AVC DDP 2.0 By-DusIcTv


❤ Donate To keep US Alive ❤

Khushi (2003) (MUSIC VIDEOS ALBUM) 1080p Untouched WebHD AVC DDP 2.0 By-DusIcTv

xxxxxxxxxxxxxxxxxxxxxxxxxxxxxxxxxxxxxxxxxxxxxxxxxxxxxxxxxxxxxxxxxxxxxxxxxxxxxxxxxxxxxxxxxxxxxxxxxxx
Khushi (2003) (MUSIC VIDEOS ALBUM) 1080p Untouched WebHD AVC DDP 2.0 By-DusIcTv
xxxxxxxxxxxxxxxxxxxxxxxxxxxxxxxxxxxxxxxxxxxxxxxxxxxxxxxxxxxxxxxxxxxxxxxxxxxxxxxxxxxxxxxxxxxxxxxxxxx

:details:

General
Format : Matroska
Format version : Version 4
File size : 1.38 GB
Overall bit rate mode : Variable

Overall bit rate : 6 270 kb/s
Writing application : mkvmerge v36.0.0 (‘Is That Jazz?’) 32-bit
Writing library : libebml v1.3.9 + libmatroska v1.5.2

Video
ID : 1
Format : AVC
Format/Info : Advanced Video Codec
Format profile : [email protected]
Format settings : CABAC / 3 Ref Frames
Format settings, CABAC : Yes
Format settings, Reference frames : 3 frames
Codec ID : V_MPEG4/ISO/AVC
Bit rate mode : Variable
Bit rate : 6 140 kb/s
Maximum bit rate : 8 430 kb/s
Width : 1 920 pixels
Height : 1 080 pixels
Display aspect ratio : 16:9
Frame rate mode : Constant
Frame rate : 25.000 FPS
Color space : YUV
Chroma subsampling : 4:2:0
Bit depth : 8 bits
Scan type : Progressive
Bits/(Pixel*Frame) : 0.118
Stream size : 259 MiB (98%)
Default : Yes
Forced : No

Audio
ID : 2
Format : E-AC-3
Format/Info : Enhanced AC-3
Commercial name : Dolby Digital Plus
Codec ID : A_EAC3
Bit rate mode : Constant
Bit rate : 128 kb/s
Channel(s) : 2 channels
Channel layout : L R
Sampling rate : 48.0 kHz
Frame rate : 31.250 FPS (1536 SPF)
Compression mode : Lossy
Stream size : 5.40 MiB (2%)
Service kind : Complete Main
Default : Yes
Forced : No

Text
ID : 3
Format : UTF-8
Codec ID : S_TEXT/UTF8
Codec ID/Info : UTF-8 Plain Text
Bit rate : 107 b/s
Count of elements : 67
Stream size : 4.25 KiB (0%)
Title : English
Language : English
Default : Yes
Forced : Yes

:screens:

:download2:
01-Aaye Re Aaye Re Khushi [By-DusIcTv].mkv   264.61 MB

https://thefileslocker.com/a0xy8ix1um9s.html

02-Good Morning India [By-DusIcTv].mkv   207.35 MB

https://thefileslocker.com/jf10uvktfl5o.html

03-Dance Music [By-DusIcTv].mkv   78.26 MB

https://thefileslocker.com/ve41nkete8td.html

04-Tere Bina [By-DusIcTv].mkv   267.03 MB

https://thefileslocker.com/rb80ctvm120n.html

05-Hai Re Hai Re [By-DusIcTv].mkv   248.50 MB

https://thefileslocker.com/oko60dym63ds.html

06-Jiya Maine Jiya [By-DusIcTv].mkv   217.80 MB

https://thefileslocker.com/9bqmmv6g8vq1.html

07-Aaj Piya [By-DusIcTv].mkv   138.06 MB

https://thefileslocker.com/726bdmy9yw2m.html

https://thefileslocker.com/k5dg4ye8cc4j.html
https://desiupload.to/f/8jyzz6-4o9b8zlgew3dh
https://uptobox.com/m818e17zs6qf

Leave a Reply

avatar
  Subscribe  
Notify of