Kis Kisko Pyaar Karoon (2015) Hindi 1080p Untouched WebHD AVC {Music Video}


~~~Desi Share.org~~~

PropellerAds

Format : Matroska
Format version : Version 4
File size : 890 MB
Overall bit rate : 10.2 Mb/s

Video
ID : 1
Format : AVC
Format/Info : Advanced Video Codec
Format profile : [email protected]
Format settings : CABAC / 4 Ref Frames
Format settings, CABAC : Yes
Format settings, ReFrames : 4 frames
Codec ID : V_MPEG4/ISO/AVC
Bit rate : 10.0 Mb/s
Width : 1 920 pixels
Height : 1 080 pixels
Display aspect ratio : 16:9
Frame rate mode : Constant
Frame rate : 25.000 FPS
Color space : YUV
Chroma subsampling : 4:2:0
Bit depth : 8 bits
Scan type : Progressive
Bits/(Pixel*Frame) : 0.193
Stream size : 207 MiB (98%)
Default : Yes
Forced : No

Audio
ID : 2
Format : AAC LC
Format/Info : Advanced Audio Codec
Codec ID : A_AAC-2
Bit rate : 192 kb/s
Channel(s) : 2 channels
Channel layout : L R
Sampling rate : 48.0 kHz
Frame rate : 46.875 FPS (1024 SPF)
Compression mode : Lossy
Delay relative to video : 8 ms
Stream size : 4.00 MiB (2%)
Default : Yes
Forced : No

ScreenShots

32f53a327272836e04ef064e85a0e849.png
56427834473b082f7ee0fa69d2489e30.png
0764845f50f9ccc3653356fe36649c89.png
44e025898939928fb50f0f4e4f199c57.png
289f0ff19cd1a4953e923b8b76c99c63.png
1c221edb957f09e27c878a483c0a3248.png
4a03bf3e43313d28f8a1b88c11502437.png
218e891e5125f7af12dbc328a6516d96.png

{ Media Fire } Download  Link { 890 MB }


Link Shorteners can be a pain, but they are our only way to maintain the servers. Your patience is highly appreciated and we hope our service can be worth it.

 

If You Found A Dead Link Please Report Below In Comment Box


Leave a Reply

avatar
  Subscribe  
Notify of