Krrish (2006) (MUSIC VIDEO ALBUM) 1080p Blu-ray x264 DTS-HDMA 5.1 ESuBS


~~~Desi Share.org~~~

PropellerAds

❤ Donate To keep US Alive ❤

General

Format                      : Matroska
Format version              : Version 4 / Version 2
File size                  : 2.57 GB
Overall bit rate            : 17.7 Mb/s
Encoded date                : UTC 2018-10-21 07:13:55
Writing application        : mkvmerge v25.0.0 (‘Prog Noir’) 64-bit
Writing library            : libebml v1.3.6 + libmatroska v1.4.9

Video
ID                          : 1
Format                      : AVC
Format/Info                : Advanced Video Codec
Format profile              : [email protected]
Format settings            : CABAC / 5 Ref Frames
Format settings, CABAC      : Yes
Format settings, ReFrames  : 5 frames
Codec ID                    : V_MPEG4/ISO/AVC
Bit rate                    : 12.0 Mb/s
Width                      : 1 920 pixels
Height                      : 818 pixels
Display aspect ratio        : 2.35:1
Frame rate mode            : Constant
Frame rate                  : 24.000 FPS
Color space                : YUV
Chroma subsampling          : 4:2:0
Bit depth                  : 8 bits
Scan type                  : Progressive
Bits/(Pixel*Frame)          : 0.319
Stream size                : 390 MiB (68%)
Language                    : English
Default                    : Yes
Forced                      : No
Color range                : Limited
Color primaries            : BT.709
Transfer characteristics    : BT.709
Matrix coefficients        : BT.709

Audio #1
ID                          : 2
Format                      : DTS
Format/Info                : Digital Theater Systems
Format profile              : MA / Core
Codec ID                    : A_DTS
Bit rate mode              : Variable / Constant
Bit rate                    : 5 188 kb/s / 1 509 kb/s
Channel(s)                  : 6 channels
Channel positions          : Front: L C R, Side: L R, LFE
Sampling rate              : 48.0 kHz
Frame rate                  : 93.750 FPS (512 SPF)
Bit depth                  : 24 bits
Compression mode            : Lossless / Lossy
Stream size                : 168 MiB (29%)
Title                      : By ~MaLiK ZEE~ 1
Language                    : Hindi
Default                    : Yes
Forced                      : No

Audio #2
ID                          : 3
Format                      : AC-3
Format/Info                : Audio Coding 3
Codec ID                    : A_AC3
Duration                    : 4 min 31 s
Bit rate mode              : Constant
Bit rate                    : 448 kb/s
Channel(s)                  : 6 channels
Channel positions          : Front: L C R, Side: L R, LFE
Sampling rate              : 48.0 kHz
Frame rate                  : 31.250 FPS (1536 SPF)
Bit depth                  : 16 bits
Compression mode            : Lossy
Delay relative to video    : 21 ms
Stream size                : 14.5 MiB (3%)
Title                      : By ~MaLiK ZEE~ 2
Language                    : Hindi
Service kind                : Complete Main
Default                    : No
Forced                      : No

01-Chori Chori Chupke Chupke [By ~MaLiK ZEE~].mkv – 573.3 MB

02-Pyar Ki Ek Kahani [By ~MaLiK ZEE~].mkv – 630.2 MB

03-Dil Na Dia [By ~MaLiK ZEE~].mkv – 829.8 MB

04-Koi Tumsa Nahin [By ~MaLiK ZEE~].mkv – 602.4 MB

[How To Download]

 
Link Shorteners can be a pain, but they are our only way to maintain the servers. Your patience is highly appreciated and we hope our service can be worth it.

 

{ ------ High-Speed Download Server ----- }

 

If You Found A Dead Link Please Report Below In Comment Box


Leave a Reply

avatar
  Subscribe  
Notify of