Main Hoon Na (2004) (MUSIC VIDEOS ALBUM) 1080p Untouched Blu-Ray Rip DD 5.1 By-DusIcTv


~~~Desi Share.org~~~

PropellerAds

xxxxxxxxxxxxxxxxxxxxxxxxxxxxxxxxxxxxxxxxxxxxxxxxxxxxxxxxxxxxxxx
Main Hoon Na (2004) (MUSIC VIDEOS ALBUM) 1080p Untouched Blu-Ray Rip DD 5.1 By-DusIcTv
xxxxxxxxxxxxxxxxxxxxxxxxxxxxxxxxxxxxxxxxxxxxxxxxxxxxxxxxxxxxxxx

Media info
General
Format : Matroska
Format version : Version 4
File size : 3.66 GB
Overall bit rate mode : Variable
Overall bit rate : 15.3 Mb/s
Encoded date : UTC 2019-09-06 11:27:25
Writing application : mkvmerge v36.0.0 (‘Is That Jazz?’) 32-bit
Writing library : libebml v1.3.9 + libmatroska v1.5.2

Video
ID : 1
Format : MPEG Video
Format version : Version 2
Format profile : [email protected]
Format settings : BVOP
Format settings, BVOP : Yes
Format settings, Matrix : Default
Format settings, GOP : M=3, N=12
Codec ID : V_MPEG2
Codec ID/Info : MPEG 1 or 2 Video
Bit rate mode : Variable
Bit rate : 14.9 Mb/s
Maximum bit rate : 25.0 Mb/s
Width : 1 920 pixels
Height : 1 080 pixels
Display aspect ratio : 16:9
Frame rate mode : Constant
Frame rate : 24.000 FPS
Color space : YUV
Chroma subsampling : 4:2:0
Bit depth : 8 bits
Scan type : Progressive
Compression mode : Lossy
Bits/(Pixel*Frame) : 0.299
Time code of first frame : 00:21:12:00
Time code source : Group of pictures header
GOP, Open/Closed : Closed
Stream size : 559 MiB (97%)
Default : Yes
Forced : No

Audio
ID : 2
Format : AC-3
Format/Info : Audio Coding 3
Commercial name : Dolby Digital
Codec ID : A_AC3
Bit rate mode : Constant
Bit rate : 448 kb/s
Channel(s) : 6 channels
Channel layout : L R C LFE Ls Rs
Sampling rate : 48.0 kHz
Frame rate : 31.250 FPS (1536 SPF)
Bit depth : 16 bits
Compression mode : Lossy
Delay relative to video : 96 ms
Stream size : 16.8 MiB (3%)
Title : AC-3 5.1
Language : Hindi
Service kind : Complete Main
Default : Yes
Forced : No

Text #1
ID : 3
Format : PGS
Muxing mode : zlib
Codec ID : S_HDMV/PGS
Codec ID/Info : Picture based subtitle format used on BDs/HD-DVDs
Bit rate : 28.4 kb/s
Count of elements : 97
Stream size : 1.03 MiB (0%)
Title : English
Language : English
Default : Yes
Forced : No

Text #2
ID : 4
Format : PGS
Muxing mode : zlib
Codec ID : S_HDMV/PGS
Codec ID/Info : Picture based subtitle format used on BDs/HD-DVDs
Bit rate : 14.4 kb/s
Count of elements : 97
Stream size : 533 KiB (0%)
Title : German
Language : German
Default : No
Forced : No
Chapter: Yes

G- Drive Download

01-Chale Jaise Hawayein [By-DusIcTv].mkv – 576.0 MB

02-Main Hoon Na [By-DusIcTv].mkv – 626.1 MB

03-Chand Mera Dil [By-DusIcTv].mkv – 156.6 MB

04-Gori Gori [By-DusIcTv].mkv – 496.9 MB

05-Dance Music (1st) [By-DusIcTv].mkv – 48.6 MB

06-Tumse Milke Dilka Hai Jo Haal [By-DusIcTv].mkv – 620.9 MB

07-Dance Music (2nd) [By-DusIcTv].mkv – 241.8 MB

08-Tumhe Jo Maine Dekha [By-DusIcTv].mkv – 457.6 MB

09-Main Hoon Na (Sad Version) [By-DusIcTv].mkv – 193.7 MB

10-Yeh Fizayein [By-DusIcTv].mkv – 338.2 MB

 


Link Shorteners can be a pain, but they are our only way to maintain the servers. Your patience is highly appreciated and we hope our service can be worth it.

 

If You Found A Dead Link Please Report Below In Comment Box


Leave a Reply

avatar
  Subscribe  
Notify of