Malaal (2019) (MUSIC VIDEOS ALBUM) 1080p Untouched WebHD AVC DDP 5.1 By-DusIcTv


❤ Donate To keep US Alive ❤

Malaal (2019) (MUSIC VIDEOS ALBUM) 1080p Untouched WebHD AVC DDP 5.1 By-DusIcTv

xxxxxxxxxxxxxxxxxxxxxxxxxxxxxxxxxxxxxxxxxxxxxxxxxxxxxxxxxxxxxxxxxxxxxxxxxxxxxxxxxxxxxxxxxxxxxxxxxxx
Malaal (2019) (MUSIC VIDEOS ALBUM) 1080p Untouched WebHD AVC DDP 5.1 By-DusIcTv
xxxxxxxxxxxxxxxxxxxxxxxxxxxxxxxxxxxxxxxxxxxxxxxxxxxxxxxxxxxxxxxxxxxxxxxxxxxxxxxxxxxxxxxxxxx

xxxxxxxx

:details:

Format : Matroska
Format version : Version 4
File size : 1.13 GB
Overall bit rate mode : Variable
Overall bit rate : 7 928 kb/s
Writing application : mkvmerge v36.0.0 (‘Is That Jazz?’) 32-bit
Writing library : libebml v1.3.9 + libmatroska v1.5.2

Video
ID : 1
Format : AVC
Format/Info : Advanced Video Codec
Format profile : [email protected]
Format settings : CABAC / 3 Ref Frames
Format settings, CABAC : Yes
Format settings, Reference frames : 3 frames
Codec ID : V_MPEG4/ISO/AVC
Bit rate mode : Variable
Bit rate : 7 286 kb/s
Maximum bit rate : 9 735 kb/s
Width : 1 920 pixels
Height : 1 080 pixels
Display aspect ratio : 16:9
Frame rate mode : Constant
Frame rate : 24.000 FPS
Color space : YUV
Chroma subsampling : 4:2:0
Bit depth : 8 bits
Scan type : Progressive
Bits/(Pixel*Frame) : 0.146
Stream size : 174 MiB (92%)
Default : Yes
Forced : No

Audio
ID : 2
Format : E-AC-3
Format/Info : Enhanced AC-3
Commercial name : Dolby Digital Plus
Codec ID : A_EAC3
Bit rate mode : Constant
Bit rate : 640 kb/s
Channel(s) : 6 channels
Channel layout : L R C LFE Ls Rs
Sampling rate : 48.0 kHz
Frame rate : 31.250 FPS (1536 SPF)
Compression mode : Lossy
Stream size : 15.3 MiB (8%)
Service kind : Complete Main
Default : Yes
Forced : No

Text
ID : 3
Format : UTF-8
Codec ID : S_TEXT/UTF8
Codec ID/Info : UTF-8 Plain Text
Bit rate : 192 b/s
Count of elements : 47
Stream size : 3.99 KiB (0%)
Title : English_Full
Language : English
Default : No
Forced : No

:screens:







:download2:
01-Aila Re [By-DusIcTv].mkv   189.02 MB

https://thefileslocker.com/vinprfm67ptk.html

02-Udhal Ho [By-DusIcTv].mkv   205.62 MB

https://thefileslocker.com/3aonpm12r2gb.html

03-Nadh Khula [By-DusIcTv].mkv   147.59 MB

https://thefileslocker.com/4xfa8il25ox2.html

04-Aai Shapat [By-DusIcTv].mkv   142.23 MB

https://thefileslocker.com/ad595m0lh816.html

05-Kathai Kathai [By-DusIcTv].mkv   153.68 MB

https://thefileslocker.com/lpduhzagu4bk.html

06-Zara Suno [By-DusIcTv].mkv   143.96 MB

https://thefileslocker.com/d5o5097c0mml.html

07-Ek Malaal [By-DusIcTv].mkv   181.60 MB

https://thefileslocker.com/vpv1rmkvolqt.html

https://thefileslocker.com/k5t0nb21kl8y.html
https://uptobox.com/lf6d6stnkp0v

Leave a Reply

avatar
  Subscribe  
Notify of