Mirzapur S01 Complete 1080p WEB-Rip x264 Hindi AC3 DD5.1 – MSUBS


~~~Desi Share.org~~~

PropellerAds

Source                                  : NbT
Format                                  : Matroska
Format version                          : Version 4 / Version 2
File size                                : 1.26 GiB
Duration                                : 53 min 16 s
Overall bit rate                        : 3 386 kb/s

Video
ID                                      : 1
Format                                  : AVC
Format/Info                              : Advanced Video Codec
Duration                                : 53 min 16 s
Bit rate                                : 3 000 kb/s
Width                                    : 1 920 pixels
Height                                  : 1 080 pixels
Display aspect ratio                    : 16:9
Frame rate mode                          : Constant
Frame rate                              : 25.000 FPS
Color space                              : YUV
Chroma subsampling                      : 4:2:0
Bit depth                                : 8 bits
Scan type                                : Progressive
Bits/(Pixel*Frame)                      : 0.058
Stream size                              : 1.12 GiB (89%)

Audio
ID                                      : 2
Format                                  : AC-3
Format/Info                              : Audio Coding 3
Codec ID                                : A_AC3
Duration                                : 53 min 16 s
Bit rate mode                            : Constant
Bit rate                                : 384 kb/s
Channel(s)                              : 6 channels
Channel positions                        : Front: L C R, Side: L R, LFE
Sampling rate                            : 48.0 kHz
Frame rate                              : 31.250 FPS (1536 SPF)
Bit depth                                : 16 bits
Compression mode                        : Lossy
Stream size                              : 146 MiB (11%)
Language                                : Hindi
Service kind                            : Complete Main
Default                                  : Yes
Forced                                  : Yes


ScreenShots

711d7b6a1333e9676db8610e05258e6b.jpg
0781af372c9b7f9e39f37841ff88f8ca.jpg
cee671e0d8e532a35371e298ecf05dd7.jpg
1f4158f08a18a65267a91ad532e2cc91.jpg
660e06a7b834e597f1be01c05953de87.jpg
5c6c49f3bf3ac7e9cd49115bf4fde0eb.jpg
d9eaa89b35c25074785825149d52166f.jpg
73f2029e89fe049a487c3c758e485b68.jpg
f5e0957fd069f2b5ae8329318461bf3d.jpg
bae91d186776fc7815c5663ce3f20390.jpg
3df4fd35f93c385cc5d434a05083f7c1.jpg
21d9dc253a7da09dad524378cf83292b.jpg
66692435a814424b725434b7de5b1ffa.jpg

Mirzapur S01E01 Jhandu 1080p [DesiShare.org].mkv – 1.3 GB

Mirzapur S01E02 Ghoda 1080p [DesiShare.org].mkv – 1.1 GB

Mirzapur S01E03 Wafadar 1080p [DesiShare.org].mkv – 1.0 GB

Mirzapur S01E04 Virginity 1080p [DesiShare.org].mkv – 1.0 GB

Mirzapur S01E05 Bhaukal 1080p [DesiShare.org].mkv – 1.1 GB

Mirzapur S01E06 Barfi 1080p WEB-[DesiShare.org].mkv – 1.1 GB

Mirzapur S01E07 Lions of Mirzapur 1080p[DesiShare.org].mkv – 1.2 GB

Mirzapur S01E08 Tandav 1080p [DesiShare.org].mkv – 1.1 GB

Mirzapur S01E09 Yogya 1080p [DesiShare.org].mkv – 1.1 GB


Link Shorteners can be a pain, but they are our only way to maintain the servers. Your patience is highly appreciated and we hope our service can be worth it.

 

If You Found A Dead Link Please Report Below In Comment Box


Leave a Reply

avatar
  Subscribe  
Notify of