Parker (2013) 1080p BluRay x264 {Dual Audio} {Hindi Org DD 2.0-English DTS 5.1} ESub By~Hammer~| G-Drive | 5.06 GB|


~~~Desi Share.org~~~

PropellerAds

❤ Donate To keep US Alive ❤

General
Format                                   : Matroska
Format version                           : Version 4 / Version 2
File size                                : 5.60 GiB
Duration                                 : 1 h 58 min
Overall bit rate                         : 6 753 kb/s
Movie name                               : Parker (2013) 1080p BluRay x264 {Dual Audio} {Hindi Org DD 2.0-English DTS 5.1} ESub By~Hammer~
Bit rate                                 : 5 000 kb/s
Width                                    : 1 920 pixels
Height                                   : 798 pixels
Display aspect ratio                     : 2.40:1
Frame rate mode                          : Constant
Frame rate                               : 23.976 (24000/1001) FPS
Title                                    : ~EncodeR~Hammer~
Language                                 : English
Default                                  : Yes
Forced                                   : No

Audio #1
Format                                   : AC-3
Format/Info                              : Audio Coding 3
Codec ID                                 : A_AC3
Duration                                 : 1 h 58 min
Bit rate mode                            : Constant
Bit rate                                 : 224 kb/s
Channel(s)                               : 2 channels
Channel positions                        : Front: L R
Sampling rate                            : 48.0 kHz
Frame rate                               : 31.250 FPS (1536 SPF)
Bit depth                                : 16 bits
Compression mode                         : Lossy
Stream size                              : 190 MiB (3%)
Title                                    : Hindi Org DD 2.0 224 kbps By~TITAN~
Language                                 : Hindi
Default                                  : Yes
Forced                                   : No

Audio #2
Format                                   : DTS
Format/Info                              : Digital Theater Systems
Codec ID                                 : A_DTS
Duration                                 : 1 h 58 min
Bit rate mode                            : Constant
Bit rate                                 : 1 509 kb/s
Channel(s)                               : 6 channels
Channel positions                        : Front: L C R, Side: L R, LFE
Sampling rate                            : 48.0 kHz
Frame rate                               : 93.750 FPS (512 SPF)
Bit depth                                : 24 bits
Compression mode                         : Lossy
Stream size                              : 1.25 GiB (22%)
Title                                    : English DTS 5.1 1509 kbps
Language                                 : English
Default                                  : No
Forced                                   : No

Text #1
Format                                   : PGS
Muxing mode                              : zlib
Codec ID                                 : S_HDMV/PGS
Codec ID/Info                            : Picture based subtitle format used on BDs/HD-DVDs
Duration                                 : 1 h 51 min
Bit rate                                 : 8 969 b/s
Count of elements                        : 3367
Stream size                              : 7.18 MiB (0%)
Title                                    : English PGS
Language                                 : English
Default                                  : Yes
Forced                                   : No

Text #2
Format                                   : PGS
Muxing mode                              : zlib
Codec ID                                 : S_HDMV/PGS
Codec ID/Info                            : Picture based subtitle format used on BDs/HD-DVDs
Duration                                 : 1 h 50 min
Bit rate                                 : 11.4 kb/s
Count of elements                        : 2867
Stream size                              : 9.00 MiB (0%)
Title                                    : English PGS
Language                                 : English
Default                                  : No
Forced                                   : No

G-Drive Download 5.06 GB

The File Download 5.6 GB

 

[How To Download]

 
Link Shorteners can be a pain, but they are our only way to maintain the servers. Your patience is highly appreciated and we hope our service can be worth it.

 

{ ------ High-Speed Download Server ----- }

 

If You Found A Dead Link Please Report Below In Comment Box


Leave a Reply

avatar
  Subscribe  
Notify of