Piranha 3DD (2012) Unrated 1080p BluRay x264 Dual Audio [Hindi DD5.1 – English DD5.1] – ESUB ~ Ranvijay | 3.19 GB | G-Drive|


~~~Desi Share.org~~~

PropellerAds

❤ Donate To keep US Alive ❤

Piranha 3DD (2012) Unrated 1080p BluRay x264 Dual Audio [Hindi DD5.1 – English DD5.1] – ESUB ~ Ranvijay

Thanks To Hammer For Hindi Audio And Peter Parker For Sync With Unrated

General
Format                  : Matroska
Format version              : Version 4 / Version 2
File size                : 3.19 GiB
Duration                 : 1 h 22 min
Overall bit rate             : 5 524 kb/s
Movie name                : Piranha 3DD (2012) Unrated 1080p BluRay x264 Dual Audio [Hindi DD5.1 – English DD5.1] – ESUB ~ Ranvijay

Video
ID                    : 1
Format                  : AVC
Format/Info               : Advanced Video Codec
Format profile              : [email protected]
Format settings             : CABAC / 4 Ref Frames
Format settings, CABAC          : Yes
Format settings, RefFrames        : 4 frames
Codec ID                 : V_MPEG4/ISO/AVC
Duration                 : 1 h 22 min
Bit rate                 : 4 500 kb/s
Width                  : 1 920 pixels
Height                  : 1 080 pixels
Display aspect ratio           : 16:9
Frame rate mode             : Constant
Frame rate                : 23.976 (24000/1001) FPS
Color space               : YUV
Chroma subsampling            : 4:2:0
Bit depth                : 8 bits
Scan type                : Progressive
Bits/(Pixel*Frame)            : 0.091
Stream size               : 2.60 GiB (81%)
Title                  : ~Ranvijay~

Audio #1
ID                    : 2
Format                  : AC-3
Format/Info               : Audio Coding 3
Codec ID                 : A_AC3
Duration                 : 1 h 22 min
Bit rate mode              : Constant
Bit rate                 : 640 kb/s
Channel(s)                : 6 channels
Channel positions            : Front: L C R, Side: L R, LFE
Sampling rate              : 48.0 kHz
Frame rate                : 31.250 FPS (1536 SPF)
Bit depth                : 16 bits
Compression mode             : Lossy
Stream size               : 379 MiB (12%)
Title                  : ~Ranvijay~
Language                 : Hindi
Service kind               : Complete Main
Default                 : Yes
Forced                  : Yes

Audio #2
ID                    : 3
Format                  : AC-3
Format/Info               : Audio Coding 3
Codec ID                 : A_AC3
Duration                 : 1 h 22 min
Bit rate mode              : Constant
Bit rate                 : 384 kb/s
Channel(s)                : 6 channels
Channel positions            : Front: L C R, Side: L R, LFE
Sampling rate              : 48.0 kHz
Frame rate                : 31.250 FPS (1536 SPF)
Bit depth                : 16 bits
Compression mode             : Lossy
Stream size               : 227 MiB (7%)
Title                  : ~Ranvijay~
Language                 : English
Service kind               : Complete Main
Default                 : No
Forced                  : No

Text
ID                    : 4
Format                  : PGS
Muxing mode               : zlib
Codec ID                 : S_HDMV/PGS
Codec ID/Info              : Picture based subtitle format used on BDs/HD-DVDs
Duration                 : 6 min 40 s
Bit rate                 : 31.8 kb/s
Count of elements            : 136
Stream size               : 1.52 MiB (0%)
Title                  : ~Ranvijay~
Language                 : English
Default                 : Yes
Forced                  : Yes

Menu
00:00:00.000               : en:00:00:00.000
00:06:20.880               : en:00:06:20.880
00:11:47.874               : en:00:11:47.874
00:14:14.062               : en:00:14:14.062
00:18:44.332               : en:00:18:44.332
00:21:37.546               : en:00:21:37.546
00:25:05.045               : en:00:25:05.045
00:31:39.481               : en:00:31:39.481
00:36:03.870               : en:00:36:03.870
00:41:50.341               : en:00:41:50.341
00:45:10.124               : en:00:45:10.124
00:51:20.911               : en:00:51:20.911
00:57:03.253               : en:00:57:03.253
01:00:12.692               : en:01:00:12.692
01:05:28.424               : en:01:05:28.424
01:10:43.406               : en:01:10:43.406

The File Locker Download 3.19 GB

G- Drive Download 3.19 GB

[How To Download]

 
Link Shorteners can be a pain, but they are our only way to maintain the servers. Your patience is highly appreciated and we hope our service can be worth it.

 

{ ------ High-Speed Download Server ----- }

 

If You Found A Dead Link Please Report Below In Comment Box


Leave a Reply

avatar
  Subscribe  
Notify of