Raees (2017) (MUSIC VIDEO ALBUM) 1080p Blu-ray x264 TrueHD ESuBS By_MrMix_


~~~Desi Share.org~~~

PropellerAds

General
Format                      : Matroska
Format version              : Version 4 / Version 2
File size                  : 1.91 GB
Overall bit rate mode      : Variable
Overall bit rate            : 13.8 Mb/s
Encoded date                : UTC 2018-10-11 18:04:35
Writing application        : mkvmerge v25.0.0 (‘Prog Noir’) 64-bit
Writing library            : libebml v1.3.6 + libmatroska v1.4.9

Video
ID                          : 1
Format                      : AVC
Format/Info                : Advanced Video Codec
Format profile              : [email protected]
Format settings            : CABAC / 5 Ref Frames
Format settings, CABAC      : Yes
Format settings, ReFrames  : 5 frames
Codec ID                    : V_MPEG4/ISO/AVC
Bit rate                    : 7 180 kb/s
Width                      : 1 920 pixels
Height                      : 804 pixels
Display aspect ratio        : 2.40:1
Frame rate mode            : Constant
Frame rate                  : 24.000 FPS
Color space                : YUV
Chroma subsampling          : 4:2:0
Bit depth                  : 8 bits
Scan type                  : Progressive
Bits/(Pixel*Frame)          : 0.194
Stream size                : 101 MiB (52%)
Language                    : English
Default                    : Yes
Forced                      : No
Color range                : Limited
Color primaries            : BT.709
Transfer characteristics    : BT.709
Matrix coefficients        : BT.709

Audio #1
ID                          : 2
Format                      : TrueHD
Format profile              : TrueHD+Atmos / TrueHD
Codec ID                    : A_TRUEHD
Bit rate mode              : Variable
Bit rate                    : 5 928 kb/s
Maximum bit rate            : 7 035 kb/s
Channel(s)                  : Object Based / 8 channels
Channel positions          : Object Based / Front: L C R, Side: L R, Back: L R, LFE
Sampling rate              :  / 48.0 kHz
Frame rate                  : 1 200.000 FPS (40 SPF)
Compression mode            : Lossless
Stream size                : 83.4 MiB (43%)
Language                    : Hindi
Default                    : Yes
Forced                      : No

Audio #2
ID                          : 3
Format                      : AC-3
Format/Info                : Audio Coding 3
Codec ID                    : A_AC3
Bit rate mode              : Constant
Bit rate                    : 640 kb/s
Channel(s)                  : 6 channels
Channel positions          : Front: L C R, Side: L R, LFE
Sampling rate              : 48.0 kHz
Frame rate                  : 31.250 FPS (1536 SPF)
Bit depth                  : 16 bits
Compression mode            : Lossy
Stream size                : 9.00 MiB (5%)
Language                    : Hindi
Service kind                : Complete Main
Default                    : No
Forced                      : No

English Subtitles : Yes

01-Dhingana [By~MaLiK ZEE~].mkv – 194.2 MB

02-Ghammar Ghammar [By~MaLiK ZEE~].mkv – 184.9 MB

03-Udi Udi Jaye [By~MaLiK ZEE~].mkv – 244.2 MB

04-Laila Main Laila [By~MaLiK ZEE~].mkv – 566.7 MB

05-Zaalima [By~MaLiK ZEE~].mkv – 201.1 MB

06-Enu Naam Che Raees [By~MaLiK ZEE~].mkv – 216.0 MB

07-Saanson Ke [By~MaLiK ZEE~].mkv – 122.9 MB

08-Saanson Ke End Roll [By~MaLiK ZEE~].mkv – 228.1 MB


Link Shorteners can be a pain, but they are our only way to maintain the servers. Your patience is highly appreciated and we hope our service can be worth it.

 

If You Found A Dead Link Please Report Below In Comment Box


Leave a Reply

avatar
  Subscribe  
Notify of