Raja Hindustani (1996) Hindi 1080p Untouched WebHD AVC DD Plus 2.0 {Music Video} ESuBS By-DusIcTv


~~~Desi Share.org~~~

PropellerAds

Raja Hindustani (1996) Hindi 1080p Untouched WebHD AVC DD Plus 2.0 {Music Video} ESuBS By-DusIcTv




General
Format                                   : Matroska
Format version                           : Version 4
File size                                : 2.55 GB
Overall bit rate mode                    : Variable
Overall bit rate                         : 7 791 kb/s
Movie name                               : DusIcTv
Encoded date                             : UTC 2019-04-20 15:15:04
Writing application                      : mkvmerge v32.0.0 (‘Astral Progressions’) 32-bit
Writing library                          : libebml v1.3.7 + libmatroska v1.5.0

Video
ID                                       : 1
Format                                   : AVC
Format/Info                              : Advanced Video Codec
Format profile                           : [email protected]
Format settings                          : CABAC / 3 Ref Frames
Format settings, CABAC                   : Yes
Format settings, Reference frames        : 3 frames
Codec ID                                 : V_MPEG4/ISO/AVC
Bit rate mode                            : Variable
Bit rate                                 : 7 660 kb/s
Maximum bit rate                         : 11.2 Mb/s
Width                                    : 1 920 pixels
Height                                   : 1 080 pixels
Display aspect ratio                     : 16:9
Frame rate mode                          : Constant
Frame rate                               : 24.000 FPS
Color space                              : YUV
Chroma subsampling                       : 4:2:0
Bit depth                                : 8 bits
Scan type                                : Progressive
Bits/(Pixel*Frame)                       : 0.154
Stream size                              : 314 MiB (98%)
Title                                    : DusIcTv
Language                                 : Hindi
Default                                  : Yes
Forced                                   : No

Audio
ID                                       : 2
Format                                   : E-AC-3
Format/Info                              : Enhanced AC-3
Commercial name                          : Dolby Digital Plus
Codec ID                                 : A_EAC3
Bit rate mode                            : Constant
Bit rate                                 : 128 kb/s
Channel(s)                               : 2 channels
Channel layout                           : L R
Sampling rate                            : 48.0 kHz
Frame rate                               : 31.250 FPS (1536 SPF)
Compression mode                         : Lossy
Stream size                              : 5.25 MiB (2%)
Title                                    : DusIcTv
Language                                 : Hindi
Service kind                             : Complete Main
Default                                  : No
Forced                                   : No

Text #1
ID                                       : 3
Format                                   : UTF-8
Codec ID                                 : S_TEXT/UTF8
Codec ID/Info                            : UTF-8 Plain Text
Bit rate                                 : 41 b/s
Count of elements                        : 38
Stream size                              : 1.50 KiB (0%)
Title                                    : DusIcTv
Language                                 : English
Default                                  : No
Forced                                   : No

Text #2
ID                                       : 4
Format                                   : UTF-8
Codec ID                                 : S_TEXT/UTF8
Codec ID/Info                            : UTF-8 Plain Text
Bit rate                                 : 70 b/s
Count of elements                        : 38
Stream size                              : 2.56 KiB (0%)
Title                                    : DusIcTv
Language                                 : Bulgarian
Default                                  : No
Forced                                   : No


























Link Shorteners can be a pain, but they are our only way to maintain the servers. Your patience is highly appreciated and we hope our service can be worth it.

 

If You Found A Dead Link Please Report Below In Comment Box


Leave a Reply

avatar
  Subscribe  
Notify of