Rangeela (1995) Hindi 1080p WebHD AVC {Music Video} ESuBS By-DusIcTv


❤ Donate To keep US Alive ❤

Rangeela (1995) Hindi 1080p WebHD AVC {Music Video} ESuBS By-DusIcTv

:details:
General
Format                         : Matroska
Format version                 : Version 4
File size                      :  3.58 GB
Overall bit rate               : 12.2 Mb/s
Writing application    : mkvmerge v34.0.0 (‘Sight and Seen’) 64-bit
Writing library   : libebml v1.3.7 + libmatroska v1.5.0

Video
ID                             : 1
Format                         : AVC
Format/Info                    : Advanced Video Codec
Format profile                 : [email protected]
Format settings                : CABAC / 4 Ref Frames
Format settings, CABAC         : Yes
Format settings, Reference fra : 4 frames
Codec ID                       : V_MPEG4/ISO/AVC
Bit rate                       : 12.0 Mb/s
Width                          : 1 920 pixels
Height                         : 816 pixels
Display aspect ratio           : 2.35:1
Frame rate mode                : Constant
Frame rate                     : 24.000 FPS
Color space                    : YUV
Chroma subsampling             : 4:2:0
Bit depth                      : 8 bits
Scan type                      : Progressive
Bits/(Pixel*Frame)             : 0.319
Stream size                    : 479 MiB (98%)
Title                          : DusIcTv
Default                        : Yes
Forced                         : No

Audio
ID                             : 2
Format                         : AAC LC
Format/Info                    : Advanced Audio Codec
Codec ID                       : A_AAC-2
Bit rate                       : 192 kb/s
Channel(s)                     : 2 channels
Channel layout                 : L R
Sampling rate                  : 48.0 kHz
Frame rate                     : 46.875 FPS (1024 SPF)
Compression mode               : Lossy
Delay relative to video        : 10 ms
Stream size                    : 7.67 MiB (2%)
Title                          : DusIcTv
Default                        : Yes
Forced                         : No

:screens:







:download2:
01-Rangeela Re [By-DusIcTv].mkv   487.04 MB

https://thefileslocker.com/a66nu5bbj62j.html

02-Yaaro Sun Lo Zara [By-DusIcTv].mkv   451.02 MB

https://thefileslocker.com/v1ux7evw14az.html

03-Mangta Hai Kya [By-DusIcTv].mkv   568.78 MB

https://thefileslocker.com/lqcy3ogfml9k.html

04-Spirit of Rangeela [By-DusIcTv].mkv   265.87 MB

https://thefileslocker.com/juic4jd9oruo.html

05-Kya Kare Kya Na Kare [By-DusIcTv].mkv   521.19 MB

https://thefileslocker.com/ytp9ybvlwc0k.html

06-Tanha Tanha Yahan Pe Jeena [By-DusIcTv].mkv   498.47 MB

https://thefileslocker.com/foa0syzxfbn9.html

07-Pyar Ye Jaane Kaisa [By-DusIcTv].mkv   394.07 MB

https://thefileslocker.com/vjrvo4wybg49.html

08-Hai Rama [By-DusIcTv].mkv   483.36 MB

https://thefileslocker.com/8l5ii7inrw59.html



https://thefileslocker.com/z6lt6s3ef27j.html
https://uptobox.com/4ggq8esxhevz
https://desiupload.to/f/rukey5-r0fow23f51ztk

Thanks To Special 26

Leave a Reply

avatar
  Subscribe  
Notify of