Rockstar (2011) BluRay 1080p DTS-HDMA 5.1 AVC REMUX – FraMeSToR | G- Drive | 39 GB |


❤ Donate To keep US Alive ❤

General
Format : Matroska
Format version : Version 4
File size : 39.2 GiB
Duration : 2 h 39 min
Overall bit rate mode : Variable
Overall bit rate : 35.3 Mb/s
Movie name : Rockstar (2011)
Encoded date : UTC 2018-04-07 17:17:55
Writing application : mkvmerge v22.0.0 (‘At The End Of The World’) 64-bit
Writing library : libebml v1.3.5 + libmatroska v1.4.8

Video
ID : 1
Format : AVC
Format/Info : Advanced Video Codec
Format profile : [email protected]
Format settings : CABAC / 4 Ref Frames
Format settings, CABAC : Yes
Format settings, ReFrames : 4 frames
Format settings, GOP : M=3, N=24
Codec ID : V_MPEG4/ISO/AVC
Duration : 2 h 39 min
Bit rate mode : Constant
Bit rate : 33.2 Mb/s
Nominal bit rate : 35.0 Mb/s
Width : 1 920 pixels
Height : 1 080 pixels
Display aspect ratio : 16:9
Frame rate mode : Constant
Frame rate : 24.000 FPS
Standard : NTSC
Color space : YUV
Chroma subsampling : 4:2:0
Bit depth : 8 bits
Scan type : Progressive
Bits/(Pixel*Frame) : 0.667
Stream size : 36.9 GiB (94%)
Default : Yes
Forced : No
Color range : Limited
Color primaries : BT.709
Transfer characteristics : BT.709
Matrix coefficients : BT.709

Audio
ID : 2
Format : DTS XLL
Format/Info : Digital Theater Systems
Commercial name : DTS-HD Master Audio
Codec ID : A_DTS
Duration : 2 h 39 min
Bit rate mode : Variable
Bit rate : 2 057 kb/s
Channel(s) : 6 channels
Channel layout : C L R Ls Rs LFE
Sampling rate : 48.0 kHz
Frame rate : 93.750 FPS (512 SPF)
Bit depth : 16 bits
Compression mode : Lossless
Stream size : 2.29 GiB (6%)
Title : DTS-HD MA 5.1
Language : Hindi
Default : Yes
Forced : No

Text
ID : 3
Format : PGS
Codec ID : S_HDMV/PGS
Codec ID/Info : Picture based subtitle format used on BDs/HD-DVDs
Duration : 2 h 33 min
Bit rate : 30.7 kb/s
Count of elements : 4109
Stream size : 33.7 MiB (0%)
Title : English
Language : English
Default : Yes
Forced : No

Menu
00:00:00.000 : en:1. Beginning
00:02:16.417 : en:2. Jordan’s Live Concert
00:05:02.417 : en:3. Rockstar (Credits) / Jo Bhi Main
00:08:19.417 : en:4. Janardan Jakhar
00:09:41.000 : en:5. Music Audition
00:15:44.625 : en:6. A Dance Performance
00:18:37.625 : en:7. Hot and Cool at Same Time
00:33:46.000 : en:8. Katiya Karun
00:34:57.000 : en:9. The Wedding
00:43:37.417 : en:10. Phir Se Ud Chala
00:47:15.417 : en:11. An Interview
00:53:12.000 : en:12. Kun Faya Kun
00:59:48.000 : en:13. Legend of Classical Music
01:04:49.417 : en:14. The Contract
01:08:37.833 : en:15. Welcome to Prague
01:13:01.417 : en:16. Hawaa Hawaa
01:18:25.625 : en:17. Jordan Meets Jay
01:26:32.750 : en:18. Aur Ho
01:31:53.000 : en:19. Never Again
01:36:07.000 : en:20. Jordan Arrested
01:38:40.000 : en:21. Back in India
01:39:36.833 : en:22. Saadda Haq
01:46:47.000 : en:23. Jordan Goes Missing
01:48:42.417 : en:24. Khatana Finds Jordan
01:51:32.625 : en:25. Jugalbandi with Ustadji
01:53:57.417 : en:26. Contract Finished
01:57:27.417 : en:27. Heer’s Sickness
02:11:02.000 : en:28. Khatana Meets Heer
02:18:26.625 : en:29. Coma
02:23:12.000 : en:30. Nadaan Parinde
02:28:13.000 : en:31. Tum Ko
02:30:45.000 : en:32. Tum Ho
02:36:00.000 : en:33. End (Credits)

G- Drive Full Movie Download 39 GB 

G- Drive Parts Download 4.5 GB

Rockstar (2011) BluRay 1080p DTS-HDMA 5.1 AVC REMUX – FraMeSToR.part09.rar – 4.0 GB

Rockstar (2011) BluRay 1080p DTS-HDMA 5.1 AVC REMUX – FraMeSToR.part08.rar – 4.4 GB

Rockstar (2011) BluRay 1080p DTS-HDMA 5.1 AVC REMUX – FraMeSToR.part07.rar – 4.4 GB

Rockstar (2011) BluRay 1080p DTS-HDMA 5.1 AVC REMUX – FraMeSToR.part06.rar – 4.4 GB

Rockstar (2011) BluRay 1080p DTS-HDMA 5.1 AVC REMUX – FraMeSToR.part05.rar – 4.4 GB

Rockstar (2011) BluRay 1080p DTS-HDMA 5.1 AVC REMUX – FraMeSToR.part04.rar – 4.4 GB

Rockstar (2011) BluRay 1080p DTS-HDMA 5.1 AVC REMUX – FraMeSToR.part03.rar – 4.4 GB

Rockstar (2011) BluRay 1080p DTS-HDMA 5.1 AVC REMUX – FraMeSToR.part02.rar – 4.4 GB

Rockstar (2011) BluRay 1080p DTS-HDMA 5.1 AVC REMUX – FraMeSToR.part01.rar – 4.4 GB

Leave a Reply

avatar
  Subscribe  
Notify of