Singham (2011) BluRay 1080p DTS-HDMA 5.1 AVC REMUX – FraMeSToR | G- Drive | 38.8 GB |


❤ Donate To keep US Alive ❤

General

Format : Matroska
Format version : Version 4
File size : 38.9 GiB
Duration : 2 h 22 min
Overall bit rate mode : Variable
Overall bit rate : 39.2 Mb/s
Movie name : Singham (2011)
Encoded date : UTC 2019-05-17 14:31:46
Writing application : mkvmerge v33.1.0 (‘Primrose’) 64-bit
Writing library : libebml v1.3.7 + libmatroska v1.5.0

Video
ID : 1
Format : AVC
Format/Info : Advanced Video Codec
Format profile : [email protected]
Format settings : CABAC / 4 Ref Frames
Format settings, CABAC : Yes
Format settings, ReFrames : 4 frames
Codec ID : V_MPEG4/ISO/AVC
Duration : 2 h 22 min
Bit rate mode : Variable
Bit rate : 34.8 Mb/s
Maximum bit rate : 38.0 Mb/s
Width : 1 920 pixels
Height : 1 080 pixels
Display aspect ratio : 16:9
Frame rate mode : Constant
Frame rate : 23.976 (24000/1001) FPS
Color space : YUV
Chroma subsampling : 4:2:0
Bit depth : 8 bits
Scan type : Progressive
Bits/(Pixel*Frame) : 0.701
Stream size : 34.6 GiB (89%)
Default : Yes
Forced : No

Audio
ID : 2
Format : DTS XLL
Format/Info : Digital Theater Systems
Commercial name : DTS-HD Master Audio
Codec ID : A_DTS
Duration : 2 h 22 min
Bit rate mode : Variable
Bit rate : 4 294 kb/s
Channel(s) : 6 channels
Channel layout : C L R Ls Rs LFE
Sampling rate : 48.0 kHz
Frame rate : 93.750 FPS (512 SPF)
Bit depth : 24 bits
Compression mode : Lossless
Stream size : 4.26 GiB (11%)
Title : DTS-HD MA 5.1
Language : Hindi
Default : Yes
Forced : No

Text
ID : 3
Format : PGS
Codec ID : S_HDMV/PGS
Codec ID/Info : Picture based subtitle format used on BDs/HD-DVDs
Duration : 2 h 18 min
Bit rate : 31.0 kb/s
Count of elements : 3631
Stream size : 30.7 MiB (0%)
Title : English
Language : English
Default : Yes
Forced : No

Menu
00:00:00.000 : en:False Allegations
00:08:31.386 : en:Singham…
00:12:23.993 : en:Inspector Bajirao Singham
00:22:34.019 : en:Kavya & Singham
00:27:37.739 : en:The Fight
00:40:47.654 : en:Saathiyaa…
00:46:20.945 : en:Conditional Bail To Jaikant
00:59:44.956 : en:Transfer At Colva Police Station
01:07:13.613 : en:Welcome to Goa, Singham!
01:15:15.928 : en:A Thought To Quit Colva
01:22:37.369 : en:FIR Against Shiva Naik
01:29:39.332 : en:Now It’s Your Turn, Jaikant!
01:37:45.902 : en:Anjali Kidnapped
01:46:03.857 : en:The Power Of Minister’s Chair
01:50:45.973 : en:Maula Maula…
01:53:36.560 : en:Victory In Election
02:00:33.935 : en:Goa Police Annual Festival
02:04:34.133 : en:Justice To Rakesh Kadam
02:13:23.329 : en:Climax
02:19:40.372 : en:End Credits

G- Drive Full Movie Download

G- Drive Download In Parts 4.5 GB 

Singham (2011) BluRay 1080p DTS-HDMA 5.1 AVC REMUX – FraMeSToR.part09.rar – 3.8 GB

Singham (2011) BluRay 1080p DTS-HDMA 5.1 AVC REMUX – FraMeSToR.part08.rar – 4.4 GB

Singham (2011) BluRay 1080p DTS-HDMA 5.1 AVC REMUX – FraMeSToR.part07.rar – 4.4 GB

Singham (2011) BluRay 1080p DTS-HDMA 5.1 AVC REMUX – FraMeSToR.part06.rar – 4.4 GB

Singham (2011) BluRay 1080p DTS-HDMA 5.1 AVC REMUX – FraMeSToR.part05.rar – 4.4 GB

Singham (2011) BluRay 1080p DTS-HDMA 5.1 AVC REMUX – FraMeSToR.part04.rar – 4.4 GB

Singham (2011) BluRay 1080p DTS-HDMA 5.1 AVC REMUX – FraMeSToR.part03.rar – 4.4 GB

Singham (2011) BluRay 1080p DTS-HDMA 5.1 AVC REMUX – FraMeSToR.part02.rar – 4.4 GB

Singham (2011) BluRay 1080p DTS-HDMA 5.1 AVC REMUX – FraMeSToR.part01.rar – 4.4 GB

4
Leave a Reply

avatar
3 Comment threads
1 Thread replies
0 Followers
 
Most reacted comment
Hottest comment thread
4 Comment authors
SaturnWebAnaysrk khanwreed Recent comment authors
  Subscribe  
newest oldest most voted
Notify of
wreed
Guest
wreed

PLEase sathyam sivam sundaram m2ts

srk khan
Member
srk khan

bro plz if u can upload so plz upload saaho full BD50 Hindi plzzz

Anay
Guest

Please Upload More Bollywood Remux Movies Daily 10