Spider-Man – Far From Home (2019) 2160p UHD BluRay REMUX HDR x265 10bit HEVC [ Hindi BD 5.1 + English 7.1] ESubs FraMeSToR | G- Drive | 51 GB|


❤ Donate To keep US Alive ❤

Spider-Man – Far From Home (2019) 2160p UHD BluRay REMUX HDR x265 10bit HEVC [Org Hindi BD 5.1 @640Kbps + English TrueHD Atmos 7.1] ESubs _ FraMeSToR.mkv

Format : Matroska
Format version : Version 4
File size : 52.0 GiB
Duration : 2 h 9 min
Overall bit rate mode : Variable
Overall bit rate : 57.5 Mb/s
Movie name : Spider-Man – Far From Home (2019) 2160p UHD BluRay REMUX HDR x265 10bit HEVC [Org Hindi BD 5.1 @640Kbps + English TrueHD Atmos 7.1] ESubs ~ FraMeSToR
Encoded date : UTC 2019-09-21 08:09:29
Writing application : mkvmerge v33.1.0 (‘Primrose’) 64-bit
Writing library : libebml v1.3.7 + libmatroska v1.5.0

Video
ID : 1
Format : HEVC
Format/Info : High Efficiency Video Coding
Commercial name : HDR10
Format profile : Main [email protected]@High
Codec ID : V_MPEGH/ISO/HEVC
Duration : 2 h 9 min
Bit rate : 53.7 Mb/s
Width : 3 840 pixels
Height : 2 160 pixels
Display aspect ratio : 16:9
Frame rate mode : Constant
Frame rate : 23.976 (24000/1001) FPS
Color space : YUV
Chroma subsampling : 4:2:0 (Type 2)
Bit depth : 10 bits
Bits/(Pixel*Frame) : 0.270
Stream size : 48.5 GiB (93%)
Title : Spider-Man – Far From Home (2019) 2160p UHD BluRay REMUX HDR x265 10bit HEVC [Org Hindi BD 5.1 @640Kbps + English TrueHD Atmos 7.1] ESubs ~ FraMeSToR
Default : Yes
Forced : No
Color range : Limited
Color primaries : BT.2020
Transfer characteristics : PQ
Matrix coefficients : BT.2020 non-constant
Mastering display color primaries : Display P3
Mastering display luminance : min: 0.0001 cd/m2, max: 1000 cd/m2
Maximum Content Light Level : 9978 cd/m2
Maximum Frame-Average Light Level : 614 cd/m2

Audio #1
ID : 2
Format : AC-3
Format/Info : Audio Coding 3
Commercial name : Dolby Digital
Codec ID : A_AC3
Duration : 2 h 9 min
Bit rate mode : Constant
Bit rate : 640 kb/s
Channel(s) : 6 channels
Channel layout : L R C LFE Ls Rs
Sampling rate : 48.0 kHz
Frame rate : 31.250 FPS (1536 SPF)
Bit depth : 16 bits
Compression mode : Lossy
Stream size : 592 MiB (1%)
Title : Org Untouched Bluray ?????? BD 5.1 640Kbps ~ Invincible
Language : Hindi
Service kind : Complete Main
Default : Yes
Forced : Yes

Audio #2
ID : 3
Format : MLP FBA 16-ch
Format/Info : Meridian Lossless Packing FBA with 16-channel presentation
Commercial name : Dolby TrueHD with Dolby Atmos
Codec ID : A_TRUEHD
Duration : 2 h 9 min
Bit rate mode : Variable
Bit rate : 3 077 kb/s
Maximum bit rate : 5 397 kb/s
Channel(s) : 8 channels
Channel layout : L R C LFE Ls Rs Lb Rb
Sampling rate : 48.0 kHz
Frame rate : 1 200.000 FPS (40 SPF)
Compression mode : Lossless
Stream size : 2.78 GiB (5%)
Title : TrueHD Atmos 7.1
Language : English
Default : No
Forced : No
Number of dynamic objects : 11
Bed channel count : 1 channel
Bed channel configuration : LFE

Text #1
ID : 4
Format : PGS
Muxing mode : zlib
Codec ID : S_HDMV/PGS
Codec ID/Info : Picture based subtitle format used on BDs/HD-DVDs
Duration : 2 h 7 min
Bit rate : 38.9 kb/s
Count of elements : 3466
Stream size : 35.6 MiB (0%)
Title : English
Language : English
Default : No
Forced : No

Text #2
ID : 5
Format : PGS
Muxing mode : zlib
Codec ID : S_HDMV/PGS
Codec ID/Info : Picture based subtitle format used on BDs/HD-DVDs
Duration : 2 h 8 min
Bit rate : 42.1 kb/s
Count of elements : 3858
Stream size : 38.6 MiB (0%)
Title : English (SDH)
Language : English
Default : No
Forced : No

Menu
00:00:00.000 : en:Chapter 01
00:09:35.033 : en:Chapter 02
00:16:06.716 : en:Chapter 03
00:25:18.475 : en:Chapter 04
00:35:26.499 : en:Chapter 05
00:41:57.014 : en:Chapter 06
00:49:50.029 : en:Chapter 07
00:57:09.509 : en:Chapter 08
01:04:50.637 : en:Chapter 09
01:15:57.219 : en:Chapter 10
01:22:49.089 : en:Chapter 11
01:29:25.193 : en:Chapter 12
01:36:43.256 : en:Chapter 13
01:44:47.364 : en:Chapter 14
01:52:17.397 : en:Chapter 15
01:57:45.433 : en:Chapter 16

191c48aeafec2d3aff2803eed5f257cd.jpg
53bffb2b12124a8c9828a20c7903e20c.jpg
dd182bb7c8a61ad8d890c883f268bab5.jpg
39238fadea5b83108e0e9c6e62684343.jpg
ff97717afa65f72b27e36f86f2111387.jpg
4739a4e162b957333a75b7afed61a6c6.jpg
48d87a3dc610aefa80a8fc6957e311fd.jpg

G- Drive Download 51GB

G- Drive Download In Parts 4 GB

The File Locker Download

Spider-Man – Far From Home (2019) 2160p UHD BluRay REMUX HDR x265 10bit HEVC [Org Hindi BD 5.1 @640Kbps + English TrueHD Atmos 7.1] ESubs _ FraMeSToR.part01.rar – 4.0 GB

Spider-Man – Far From Home (2019) 2160p UHD BluRay REMUX HDR x265 10bit HEVC [Org Hindi BD 5.1 @640Kbps + English TrueHD Atmos 7.1] ESubs _ FraMeSToR.part02.rar – 4.0 GB

Spider-Man – Far From Home (2019) 2160p UHD BluRay REMUX HDR x265 10bit HEVC [Org Hindi BD 5.1 @640Kbps + English TrueHD Atmos 7.1] ESubs _ FraMeSToR.part03.rar – 4.0 GB

Spider-Man – Far From Home (2019) 2160p UHD BluRay REMUX HDR x265 10bit HEVC [Org Hindi BD 5.1 @640Kbps + English TrueHD Atmos 7.1] ESubs _ FraMeSToR.part04.rar – 4.0 GB

Spider-Man – Far From Home (2019) 2160p UHD BluRay REMUX HDR x265 10bit HEVC [Org Hindi BD 5.1 @640Kbps + English TrueHD Atmos 7.1] ESubs _ FraMeSToR.part05.rar – 4.0 GB

Spider-Man – Far From Home (2019) 2160p UHD BluRay REMUX HDR x265 10bit HEVC [Org Hindi BD 5.1 @640Kbps + English TrueHD Atmos 7.1] ESubs _ FraMeSToR.part06.rar – 4.0 GB

Spider-Man – Far From Home (2019) 2160p UHD BluRay REMUX HDR x265 10bit HEVC [Org Hindi BD 5.1 @640Kbps + English TrueHD Atmos 7.1] ESubs _ FraMeSToR.part07.rar – 4.0 GB

Spider-Man – Far From Home (2019) 2160p UHD BluRay REMUX HDR x265 10bit HEVC [Org Hindi BD 5.1 @640Kbps + English TrueHD Atmos 7.1] ESubs _ FraMeSToR.part08.rar – 4.0 GB

Spider-Man – Far From Home (2019) 2160p UHD BluRay REMUX HDR x265 10bit HEVC [Org Hindi BD 5.1 @640Kbps + English TrueHD Atmos 7.1] ESubs _ FraMeSToR.part09.rar – 4.0 GB

Spider-Man – Far From Home (2019) 2160p UHD BluRay REMUX HDR x265 10bit HEVC [Org Hindi BD 5.1 @640Kbps + English TrueHD Atmos 7.1] ESubs _ FraMeSToR.part10.rar – 4.0 GB

Spider-Man – Far From Home (2019) 2160p UHD BluRay REMUX HDR x265 10bit HEVC [Org Hindi BD 5.1 @640Kbps + English TrueHD Atmos 7.1] ESubs _ FraMeSToR.part11.rar – 4.0 GB

Spider-Man – Far From Home (2019) 2160p UHD BluRay REMUX HDR x265 10bit HEVC [Org Hindi BD 5.1 @640Kbps + English TrueHD Atmos 7.1] ESubs _ FraMeSToR.part12.rar – 4.0 GB

Spider-Man – Far From Home (2019) 2160p UHD BluRay REMUX HDR x265 10bit HEVC [Org Hindi BD 5.1 @640Kbps + English TrueHD Atmos 7.1] ESubs _ FraMeSToR.part13.rar – 4.0 GB

Leave a Reply

avatar
  Subscribe  
Notify of