Suhaag 1994 Full Movie 720p X264 WEB-DL Free Download


~~~Desi Share.org~~~

PropellerAds

Format : MPEG-4
Format profile : Base Media
Codec ID : isom (isom/iso2/avc1/mp41)
File size : 1.13 GiB
Duration : 2 h 35 min
Overall bit rate : 1 038 kb/s

Writing application : Lavf57.83.100

Video
ID : 1
Format : AVC
Format/Info : Advanced Video Codec
Format profile : [email protected]
Format settings : CABAC / 4 Ref Frames
Format settings, CABAC : Yes
Format settings, ReFrames : 4 frames
Codec ID : avc1
Codec ID/Info : Advanced Video Coding
Duration : 2 h 35 min
Bit rate : 900 kb/s
Width : 1 280 pixels
Height : 544 pixels
Display aspect ratio : 2.35:1
Frame rate mode : Variable
Frame rate : 23.976 (24000/1001) FPS
Minimum frame rate : 23.564 FPS
Maximum frame rate : 24.390 FPS
Color space : YUV
Chroma subsampling : 4:2:0
Bit depth : 8 bits
Scan type : Progressive
Bits/(Pixel*Frame) : 0.054
Stream size : 1 006 MiB (87%)

Audio
ID : 2
Format : AAC LC
Format/Info : Advanced Audio Codec Low Complexity
Codec ID : mp4a-40-2
Duration : 2 h 35 min
Bit rate mode : Constant
Bit rate : 128 kb/s
Channel(s) : 2 channels
Channel layout : L R
Sampling rate : 22.05 kHz
Frame rate : 21.533 FPS (1024 SPF)
Compression mode : Lossy
Stream size : 143 MiB (12%)
Title : Stereo
Default : Yes
Alternate group : 1

d7d7d23800d52201bb7a371cfdccd856.jpg
48e5a6264575db10310b9f1d9ae2419e.jpg
44d9a3cf914d752edf64486fd9046487.jpg
a26aac76860e8fc1dc9f8f3d3f61cef7.jpg
bfd300b7ba64bf3a9ac4b88896698c04.jpg
be47a1f449105fe7b56b550b4882aaaa.jpg
03bae4caa901046bcc8c8b83ebd6aa2e.jpg

 

PLAY ONLINE

The File Locker Download {1.13 GB}

Quick Download {1.13 GB} 

{ Direct } Download  Link {1.13 GB}

{ G-Drive } Download  Link {1.13 GB}

{ Mega – Drive } Download  Link {1.13 GB} 

{Media Fire } Download  Link {1.13 GB}


Link Shorteners can be a pain, but they are our only way to maintain the servers. Your patience is highly appreciated and we hope our service can be worth it.

 

If You Found A Dead Link Please Report Below In Comment Box


Leave a Reply

avatar
  Subscribe  
Notify of