The Exorcist (1973) 1080p Untouched WEB-DL x264 {Hindi DD+2.0-Eng DD+5.1} ESub By~Hammer~| G-Drive | 6.87 GB |


~~~Desi Share.org~~~

PropellerAds

❤ Donate To keep US Alive ❤

General
Format                                   : Matroska
Format version                           : Version 4 / Version 2
File size                                : 6.87 GiB
Duration                                 : 2 h 1 min
Overall bit rate mode                    : Variable
Overall bit rate                         : 8 071 kb/s
Movie name                               : The Exorcist (1973) 1080p Untouched WEB-DL x264 {Hindi DD+2.0-Eng DD+5.1} ESub By~Hammer~
Bit rate mode                            : Variable
Bit rate                                 : 7 500 kb/s
Maximum bit rate                         : 11.2 Mb/s
Width                                    : 1 920 pixels
Height                                   : 1 080 pixels
Display aspect ratio                     : 16:9
Frame rate mode                          : Constant
Frame rate                               : 23.976 (24000/1001) FPS
Default                                  : Yes
Forced                                   : No

Audio #1
Format                                   : E-AC-3
Format/Info                              : Enhanced Audio Coding 3
Codec ID                                 : A_EAC3
Duration                                 : 2 h 1 min
Bit rate mode                            : Constant
Bit rate                                 : 448 kb/s
Channel(s)                               : 6 channels
Channel positions                        : Front: L C R, Side: L R, LFE
Sampling rate                            : 48.0 kHz
Frame rate                               : 187.500 FPS (256 SPF)
Compression mode                         : Lossy
Stream size                              : 391 MiB (6%)
Title                                    : English
Language                                 : English
Default                                  : Yes
Forced                                   : No

Audio #2
Format                                   : E-AC-3
Format/Info                              : Enhanced Audio Coding 3
Codec ID                                 : A_EAC3
Duration                                 : 2 h 1 min
Bit rate mode                            : Constant
Bit rate                                 : 128 kb/s
Channel(s)                               : 2 channels
Channel positions                        : Front: L R
Sampling rate                            : 48.0 kHz
Frame rate                               : 187.500 FPS (256 SPF)
Compression mode                         : Lossy
Stream size                              : 112 MiB (2%)
Title                                    : Hindi
Language                                 : Hindi
Default                                  : No
Forced                                   : No

Text
Format                                   : UTF-8
Codec ID                                 : S_TEXT/UTF8
Codec ID/Info                            : UTF-8 Plain Text
Duration                                 : 1 h 58 min
Bit rate                                 : 41 b/s
Count of elements                        : 2609
Stream size                              : 36.1 KiB (0%)
Title                                    : English [SDH]
Language                                 : English
Default                                  : No
Forced                                   : No

G-Drive Download 7 GB

The File Locker Download 7 GB

[How To Download]

 
Link Shorteners can be a pain, but they are our only way to maintain the servers. Your patience is highly appreciated and we hope our service can be worth it.

 

{ ------ High-Speed Download Server ----- }

 

If You Found A Dead Link Please Report Below In Comment Box


Leave a Reply

avatar
  Subscribe  
Notify of