The Secret Life of Pets 2 (2019) 1080p BDRip x264 {Hindi BD+7.1-Eng BD 5.1} FIRST_ON_NET_By~Hammer~ | G-Drive | 6.19 GB |


~~~Desi Share.org~~~

PropellerAds

❤ Donate To keep US Alive ❤

General
Format                                   : Matroska
Format version                           : Version 4
File size                                : 6.19 GiB
Duration                                 : 1 h 26 min
Overall bit rate                         : 10.3 Mb/s
Movie name                               : The Secret Life of Pets 2 (2019) 1080p BDRip x264 {Hindi BD+7.1-Eng BD 5.1} FIRST_ON_NET_By~Hammer~
Bit rate                                 : 8 888 kb/s
Width                                    : 1 920 pixels
Height                                   : 1 036 pixels
Display aspect ratio                     : 1.85:1
Frame rate mode                          : Constant
Frame rate                               : 23.976 (24000/1001) FPS
Title                                    : By~Hammer~
Language                                 : English
Default                                  : Yes
Forced                                   : No

Audio #1
Format                                   : E-AC-3
Format/Info                              : Enhanced AC-3
Commercial name                          : Dolby Digital Plus
Format profile                           : Blu-ray Disc
Codec ID                                 : A_EAC3
Duration                                 : 1 h 26 min
Bit rate mode                            : Constant
Bit rate                                 : 768 kb/s
Channel(s)                               : 8 channels
Channel layout                           : L R C LFE Ls Rs Lb Rb
Sampling rate                            : 48.0 kHz
Frame rate                               : 31.250 FPS (1536 SPF)
Compression mode                         : Lossy
Stream size                              : 473 MiB (7%)
Title                                    : Hindi Org BD DD+7.1 Audio By~Hammer~
Language                                 : Hindi
Default                                  : Yes
Forced                                   : No

Audio #2
Format                                   : AC-3
Format/Info                              : Audio Coding 3
Commercial name                          : Dolby Digital
Codec ID                                 : A_AC3
Duration                                 : 1 h 26 min
Bit rate mode                            : Constant
Bit rate                                 : 640 kb/s
Channel(s)                               : 6 channels
Channel layout                           : L R C LFE Ls Rs
Sampling rate                            : 48.0 kHz
Frame rate                               : 31.250 FPS (1536 SPF)
Compression mode                         : Lossy
Stream size                              : 394 MiB (6%)
Title                                    : English BD 5.1 640 kbps By~Hammer~
Language                                 : English
Default                                  : No
Forced                                   : No

Text #1
Format                                   : UTF-8
Codec ID                                 : S_TEXT/UTF8
Codec ID/Info                            : UTF-8 Plain Text
Duration                                 : 1 h 25 min
Bit rate                                 : 53 b/s
Count of elements                        : 1324
Stream size                              : 33.3 KiB (0%)
Title                                    : English PGS
Language                                 : English
Default                                  : No
Forced                                   : No

Text #2
Format                                   : PGS
Muxing mode                              : zlib
Codec ID                                 : S_HDMV/PGS
Codec ID/Info                            : Picture based subtitle format used on BDs/HD-DVDs
Duration                                 : 1 h 25 min
Bit rate                                 : 24.0 kb/s
Count of elements                        : 2002
Stream size                              : 14.7 MiB (0%)
Title                                    : Hindi PGS
Language                                 : Hindi
Default                                  : Yes
Forced                                   : No

Text #3
Format                                   : PGS
Muxing mode                              : zlib
Codec ID                                 : S_HDMV/PGS
Codec ID/Info                            : Picture based subtitle format used on BDs/HD-DVDs
Duration                                 : 1 h 13 min
Bit rate                                 : 640 b/s
Count of elements                        : 56
Stream size                              : 347 KiB (0%)
Title                                    : Hindi SRT
Language                                 : Hindi
Default                                  : No
Forced                                   : No

Download In G-Drive 6.19 GB 

[How To Download]

 
Link Shorteners can be a pain, but they are our only way to maintain the servers. Your patience is highly appreciated and we hope our service can be worth it.

 

{ ------ High-Speed Download Server ----- }

 

If You Found A Dead Link Please Report Below In Comment Box


Leave a Reply

avatar
  Subscribe  
Notify of