Tiger Zinda Hai (2017) (MUSIC VIDEO ALBUM) 1080p Blu-ray x264 DOLBY ATMOS TrueHD 7.1


~~~Desi Share.org~~~

PropellerAds

Video
ID                          : 1
Format                      : AVC
Format/Info                : Advanced Video Codec
Format profile              : [email protected]
Format settings            : CABAC / 5 Ref Frames
Format settings, CABAC      : Yes
Format settings, ReFrames  : 5 frames
Codec ID                    : V_MPEG4/ISO/AVC
Bit rate                    : 4 028 kb/s
Width                      : 1 920 pixels
Height                      : 816 pixels
Display aspect ratio        : 2.35:1
Frame rate mode            : Constant
Frame rate                  : 24.000 FPS
Color space                : YUV
Chroma subsampling          : 4:2:0
Bit depth                  : 8 bits
Scan type                  : Progressive
Bits/(Pixel*Frame)          : 0.107
Stream size                : 139 MiB (42%)
Language                    : English
Default                    : Yes
Forced                      : No
Color range                : Limited
Color primaries            : BT.709
Transfer characteristics    : BT.709
Matrix coefficients        : BT.709

Audio #1
ID                          : 2
Format                      : TrueHD
Format profile              : TrueHD+Atmos / TrueHD
Codec ID                    : A_TRUEHD
Bit rate mode              : Variable
Bit rate                    : 4 773 kb/s
Maximum bit rate            : 7 494 kb/s
Channel(s)                  : Object Based / 8 channels
Channel positions          : Object Based / Front: L C R, Side: L R, Back: L R, LFE
Sampling rate              :  / 48.0 kHz
Frame rate                  : 1 200.000 FPS (40 SPF)
Compression mode            : Lossless
Delay relative to video    : 17 ms
Stream size                : 164 MiB (50%)
Title                      : By~MaLiK ZEE~ 1
Language                    : Hindi
Default                    : Yes
Forced                      : No

01-Dil Dia Gallan [By ~MaLiK ZEE~].mkv – 328.4 MB

02-Tera Noor [By ~MaLiK ZEE~].mkv – 336.5 MB

03-Swag Se Swagat [By ~MaLiK ZEE~].mkv – 378.2 MB


Link Shorteners can be a pain, but they are our only way to maintain the servers. Your patience is highly appreciated and we hope our service can be worth it.

 

If You Found A Dead Link Please Report Below In Comment Box


Leave a Reply

avatar
  Subscribe  
Notify of