Top 50 Songs Of A.R Rahman 2013 Tamil PYD Blu-ray Remux 1080p AVC DD 5.1


~~~Desi Share.org~~~

PropellerAds

General

Format                                   : Matroska
Format version                           : Version 4
File size                                : 37.7 GiB
Duration                                 : 4 h 8 min
Overall bit rate mode                    : Constant
Overall bit rate                         : 21.8 Mb/s
Encoded date                             : UTC 2019-04-04 09:04:31
Writing application                      : mkvmerge v32.0.0 (‘Astral Progressions’) 64-bit
Writing library                          : libebml v1.3.7 + libmatroska v1.5.0

Video
ID                                       : 1
Format                                   : AVC
Format/Info                              : Advanced Video Codec
Format profile                           : [email protected]
Format settings                          : CABAC / 4 Ref Frames
Format settings, CABAC                   : Yes
Format settings, RefFrames               : 4 frames
Format settings, GOP                     : M=3, N=30
Codec ID                                 : V_MPEG4/ISO/AVC
Duration                                 : 4 h 8 min
Bit rate mode                            : Constant
Bit rate                                 : 22.0 Mb/s
Width                                    : 1 920 pixels
Height                                   : 1 080 pixels
Display aspect ratio                     : 16:9
Frame rate mode                          : Constant
Frame rate                               : 29.970 (30000/1001) FPS
Color space                              : YUV
Chroma subsampling                       : 4:2:0
Bit depth                                : 8 bits
Scan type                                : MBAFF
Scan type, store method                  : Interleaved fields
Scan order                               : Top Field First
Bits/(Pixel*Frame)                       : 0.354
Stream size                              : 37.3 GiB (99%)
Default                                  : Yes
Forced                                   : No
Color range                              : Limited
Color primaries                          : BT.709
Transfer characteristics                 : BT.709
Matrix coefficients                      : BT.709

Audio
ID                                       : 2
Format                                   : AC-3
Format/Info                              : Audio Coding 3
Commercial name                          : Dolby Digital
Codec ID                                 : A_AC3
Duration                                 : 4 h 8 min
Bit rate mode                            : Constant
Bit rate                                 : 224 kb/s
Channel(s)                               : 6 channels
Channel layout                           : L R C LFE Ls Rs
Sampling rate                            : 48.0 kHz
Frame rate                               : 31.250 FPS (1536 SPF)
Bit depth                                : 16 bits
Compression mode                         : Lossy
Stream size                              : 398 MiB (1%)
Language                                 : English
Service kind                             : Complete Main
Default                                  : Yes
Forced                                   : No

Menu
00:00:00.000                             : :Chapter 01
00:04:38.177                             : :Chapter 02
00:09:29.669                             : :Chapter 03
00:14:53.726                             : :Chapter 04
00:18:15.494                             : :Chapter 05
00:23:42.320                             : :Chapter 06
00:26:58.416                             : :Chapter 07
00:31:56.714                             : :Chapter 08
00:38:24.769                             : :Chapter 09
00:44:25.596                             : :Chapter 10
00:50:28.291                             : :Chapter 11
00:54:46.349                             : :Chapter 12
00:58:11.421                             : :Chapter 13
01:02:54.937                             : :Chapter 14
01:07:44.460                             : :Chapter 15
01:12:33.816                             : :Chapter 16
01:17:44.693                             : :Chapter 17
01:23:05.880                             : :Chapter 18
01:27:05.653                             : :Chapter 19
01:33:15.056                             : :Chapter 20
01:39:46.547                             : :Chapter 21
01:44:31.932                             : :Chapter 22
01:51:08.461                             : :Chapter 23
01:54:41.774                             : :Chapter 24
01:59:54.587                             : :Chapter 25
02:04:54.787                             : :Chapter 26
02:09:30.095                             : :Chapter 27
02:14:01.733                             : :Chapter 28
02:18:58.630                             : :Chapter 29
02:23:30.401                             : :Chapter 30
02:28:11.949                             : :Chapter 31
02:32:34.044                             : :Chapter 32
02:38:35.839                             : :Chapter 33
02:42:53.830                             : :Chapter 34
02:50:01.457                             : :Chapter 35
02:54:27.657                             : :Chapter 36
02:58:04.774                             : :Chapter 37
03:03:42.811                             : :Chapter 38
03:08:14.716                             : :Chapter 39
03:13:21.022                             : :Chapter 40
03:18:09.310                             : :Chapter 41
03:22:55.329                             : :Chapter 42
03:27:29.603                             : :Chapter 43
03:32:37.311                             : :Chapter 44
03:37:52.125                             : :Chapter 45
03:43:14.581                             : :Chapter 46
03:48:47.447                             : :Chapter 47
03:52:59.832                             : :Chapter 48
03:58:26.558                             : :Chapter 49
04:03:31.697                             : :Chapter 50
04:08:04.903                             : :Chapter 51

ca350ad42064b80dd904145921d076ea.png
73af975b36ee906713fb94e5ea9010e0.png
ecba0a024534ccc514a27285c44cb6fa.png
9033d81e7bcbd05e24789c71e5f4976e.png
8887b6db205f1c1215943a7478bdb1c5.png

G-Drive Download


Link Shorteners can be a pain, but they are our only way to maintain the servers. Your patience is highly appreciated and we hope our service can be worth it.

 

If You Found A Dead Link Please Report Below In Comment Box


Leave a Reply

avatar
  Subscribe  
Notify of