War For The Planet Of The Apes (2017) 1080p BDRip Dual Audio Org BD {Hindi+Eng 6Ch}-~{[email protected]}


❤ Donate To keep US Alive ❤

Format : Matroska
Format version : Version 4
File size : 4.78 GiB
Duration : 2 h 20 min
Overall bit rate mode : Variable
Overall bit rate : 4 886 kb/s
Movie name : .-~{[email protected]}~-.
Encoded date : UTC 2017-10-19 08:24:56
Writing application : mkvmerge v9.5.0 (‘Quiet Fire’) 64bit
Writing library : libebml v1.3.4 + libmatroska v1.4.5

Video
ID : 1
Format : AVC
Format/Info : Advanced Video Codec
Format profile : [email protected]
Format settings : CABAC / 5 Ref Frames
Format settings, CABAC : Yes
Format settings, ReFrames : 5 frames
Codec ID : V_MPEG4/ISO/AVC
Duration : 2 h 20 min
Bit rate mode : Variable
Bit rate : 3 789 kb/s
Maximum bit rate : 62.5 Mb/s
Width : 1 920 pixels
Height : 800 pixels
Display aspect ratio : 2.40:1
Frame rate mode : Constant
Frame rate : 23.976 (24000/1001) FPS
Color space : YUV
Chroma subsampling : 4:2:0
Bit depth : 8 bits
Scan type : Progressive
Bits/(Pixel*Frame) : 0.103
Stream size : 3.71 GiB (78%)
Title : War.For.The.Planet.Of.The.Apes.(2017).1080p.BDRip.Dual.Audio.Org.BD.{Hindi+Eng.6Ch}.-~{[email protected]}~-.

Forced : No

Audio #1
ID : 2
Format : AC-3
Format/Info : Audio Coding 3
Commercial name : Dolby Digital
Codec ID : A_AC3
Duration : 2 h 20 min
Bit rate mode : Constant
Bit rate : 640 kb/s
Channel(s) : 6 channels
Channel layout : L R C LFE Ls Rs
Sampling rate : 48.0 kHz
Frame rate : 31.250 FPS (1536 SPF)
Bit depth : 16 bits
Compression mode : Lossy
Stream size : 642 MiB (13%)
Title : RiPPER~ L3GEND~ ORG BD DOLBY DIGITAL [email protected]~
Language : English
Service kind : Complete Main
Default : No
Forced : No

Audio #2
ID : 3
Format : AC-3
Format/Info : Audio Coding 3
Commercial name : Dolby Digital
Codec ID : A_AC3
Duration : 2 h 20 min
Bit rate mode : Constant
Bit rate : 448 kb/s
Channel(s) : 6 channels
Channel layout : L R C LFE Ls Rs
Sampling rate : 48.0 kHz
Frame rate : 31.250 FPS (1536 SPF)
Bit depth : 16 bits
Compression mode : Lossy
Stream size : 449 MiB (9%)
Title : RiPPER~ L3GEND~ ORG BD DOLBY DIGITAL [email protected]~
Language : Hindi
Service kind : Complete Main
Default : Yes
Forced : No

Text #1
ID : 4
Format : PGS
Muxing mode : zlib
Codec ID : S_HDMV/PGS
Codec ID/Info : Picture based subtitle format used on BDs/HD-DVDs
Duration : 2 h 9 min
Bit rate : 4 801 b/s
Count of elements : 2022
Stream size : 4.44 MiB (0%)
Title : L3GEND~ Presentation Graphics Subtitles~
Language : English
Default : Yes
Forced : No

Text #2
ID : 5
Format : PGS
Muxing mode : zlib
Codec ID : S_HDMV/PGS
Codec ID/Info : Picture based subtitle format used on BDs/HD-DVDs
Duration : 2 h 18 min
Bit rate : 3 307 b/s
Count of elements : 1560
Stream size : 3.29 MiB (0%)
Title : L3GEND~ Presentation Graphics Subtitles~
Language : Hindi
Default : No
Forced : No

45a3aebfc60893c2771ff11560e7a473.jpg
05d530d80b62f6ec5aecae1bd3ee8753.jpg
684b94663736af5aebb5fbb2673dbfa6.jpg
fc0ffeab9bfc663f09316bf8b2f25ffc.jpg
b75e5697fc0618e0de777b92aaafceba.jpg

G-Drive | The File Locker

 

Leave a Reply

avatar
  Subscribe  
Notify of