What_s Your Raashee (2009) (MUSIC VIDEOS ALBUM) 1080p Untouched WebHD AVC DDP 5.1 By-DusIcTv


❤ Donate To keep US Alive ❤

xxxxxxxxxxxxxxxxxxxxxxxxxxxxxxxxxxxxxxxxxxxxxxxxxxxxxxxxxxxxxxxxxxxxxxxxxxxxxxxxxxxxxxxxxxxxxxxxxxx
What_s Your Raashee (2009) (MUSIC VIDEOS ALBUM) 1080p Untouched WebHD AVC DDP 5.1 By-DusIcTv
xxxxxxxxxxxxxxxxxxxxxxxxxxxxxxxxxxxxxxxxxxxxxxxxxxxxxxxxxxxxxxxxxxxxxxxxxxxxxxxxxxxxxxxxxxxxxxxxxxx

General
Format : Matroska
Format version : Version 4
File size : 1.74 GB
Overall bit rate mode : Variable
Overall bit rate : 5 454 kb/s
Encoded date : UTC 2019-10-18 16:46:13
Writing application : mkvmerge v36.0.0 (‘Is That Jazz?’) 32-bit
Writing library : libebml v1.3.9 + libmatroska v1.5.2

Video
ID : 1
Format : AVC
Format/Info : Advanced Video Codec
Format profile : [email protected]
Format settings : CABAC / 4 Ref Frames
Format settings, CABAC : Yes
Format settings, Reference frames : 4 frames
Codec ID : V_MPEG4/ISO/AVC
Bit rate mode : Variable
Bit rate : 4 811 kb/s
Maximum bit rate : 20.0 Mb/s
Width : 1 920 pixels
Height : 1 080 pixels
Display aspect ratio : 16:9
Frame rate mode : Constant
Frame rate : 25.000 FPS
Color space : YUV
Chroma subsampling : 4:2:0
Bit depth : 8 bits
Scan type : Progressive
Bits/(Pixel*Frame) : 0.093
Stream size : 110 MiB (88%)
Default : Yes
Forced : No

Audio
ID : 2
Format : E-AC-3
Format/Info : Enhanced AC-3
Commercial name : Dolby Digital Plus
Codec ID : A_EAC3
Bit rate mode : Constant
Bit rate : 640 kb/s
Channel(s) : 6 channels
Channel layout : L R C LFE Ls Rs
Sampling rate : 48.0 kHz
Frame rate : 31.250 FPS (1536 SPF)
Compression mode : Lossy
Delay relative to video : 16 ms
Stream size : 14.6 MiB (12%)
Service kind : Complete Main
Default : Yes
Forced : No

Text
ID : 3
Format : UTF-8
Codec ID : S_TEXT/UTF8
Codec ID/Info : UTF-8 Plain Text
Bit rate : 50 b/s
Count of elements : 24
Stream size : 902 Bytes (0%)
Title : English
Language : English
Default : Yes
Forced : Yes

01-What_s Your Raashee (Pal Pal Dil Jisko Dhoonde) [By-DusIcTv].mkv – 112.3 MB

02-Jao Na [By-DusIcTv].mkv – 124.2 MB

03-Aaja Lehraate [By-DusIcTv].mkv – 282.8 MB

04-Bikhri Bikhri [By-DusIcTv].mkv – 78.2 MB

05-Maanunga Maanunga [By-DusIcTv].mkv – 104.6 MB

06-Sau Janam [By-DusIcTv].mkv – 108.1 MB

07-Dhadkan Dhadkan [By-DusIcTv].mkv – 181.9 MB

08-Aa Le Chal [By-DusIcTv].mkv – 112.2 MB

09-Pyaari Pyaari [By-DusIcTv].mkv – 138.1 MB

10-Su Chhe Su Chhe [By-DusIcTv].mkv – 183.3 MB

11-Salone Kya [By-DusIcTv].mkv – 142.2 MB

12-Koi Jaane Na [By-DusIcTv].mkv – 82.6 MB

13-What_s Your Raashee [By-DusIcTv].mkv – 141.2 MB

Leave a Reply

avatar
  Subscribe  
Notify of