Yeh Dillagi (1994) (MUSIC VIDEOS ALBUM) 1080p WebHD AVC DDP 2.0 By-DusIcTv


~~~Desi Share.org~~~

PropellerAds

xxxxxxxxxxxxxxxxxxxxxxxxxxxxxxxxxxxxxxxxxxxxxxxxxxxxxxxxxxxxxxx
Yeh Dillagi (1994) (MUSIC VIDEOS ALBUM) 1080p WebHD AVC DDP 2.0 By-DusIcTv
xxxxxxxxxxxxxxxxxxxxxxxxxxxxxxxxxxxxxxxxxxxxxxxxxxxxxxxxxxxxxxx

Media info
General
Format                                   : Matroska
Format version                           : Version 4
File size                                : 1.76 GB
Overall bit rate mode                    : Variable
Overall bit rate                         : 9 369 kb/s
Encoded date                             : UTC 2019-08-24 05:55:48
Writing application                      : mkvmerge v36.0.0 (‘Is That Jazz?’) 32-bit
Writing library                          : libebml v1.3.9 + libmatroska v1.5.2

Video
ID                                       : 1
Format                                   : AVC
Format/Info                              : Advanced Video Codec
Format profile                           : [email protected]
Format settings                          : CABAC / 4 Ref Frames
Format settings, CABAC                   : Yes
Format settings, Reference frames        : 4 frames
Codec ID                                 : V_MPEG4/ISO/AVC
Bit rate mode                            : Variable
Bit rate                                 : 9 143 kb/s
Maximum bit rate                         : 15.0 Mb/s
Width                                    : 1 920 pixels
Height                                   : 816 pixels
Display aspect ratio                     : 2.35:1
Frame rate mode                          : Constant
Frame rate                               : 23.976 (24000/1001) FPS
Color space                              : YUV
Chroma subsampling                       : 4:2:0
Bit depth                                : 8 bits
Scan type                                : Progressive
Bits/(Pixel*Frame)                       : 0.243
Stream size                              : 285 MiB (98%)
Default                                  : Yes
Forced                                   : No
Color range                              : Limited
Color primaries                          : BT.709
Transfer characteristics                 : BT.709
Matrix coefficients                      : BT.709

Audio
ID                                       : 2
Format                                   : E-AC-3
Format/Info                              : Enhanced AC-3
Commercial name                          : Dolby Digital Plus
Codec ID                                 : A_EAC3
Bit rate mode                            : Constant
Bit rate                                 : 224 kb/s
Channel(s)                               : 2 channels
Channel layout                           : L R
Sampling rate                            : 48.0 kHz
Frame rate                               : 31.250 FPS (1536 SPF)
Compression mode                         : Lossy
Delay relative to video                  : 30 ms
Stream size                              : 6.99 MiB (2%)
Language                                 : English
Service kind                             : Complete Main
Default                                  : Yes
Forced                                   : No

G-Drive Download

01-Ole Ole [By-DusIcTv].mkv – 292.3 MB

02-Naam Kyaa Hai [By-DusIcTv].mkv – 158.4 MB

03-Jaanam I Love You [By-DusIcTv].mkv – 188.8 MB

04-Dekho Zara Dekho [By-DusIcTv].mkv – 371.9 MB

05-Gori Kalai [By-DusIcTv].mkv – 338.2 MB

06-Lagi Lagi Hai Ye Dil Ki Lagi [By-DusIcTv].mkv – 231.0 MB

07-Mai Deewana Hu Mujhe Dillagi Ne Mara [By-DusIcTv].mkv – 228.3 MB


Link Shorteners can be a pain, but they are our only way to maintain the servers. Your patience is highly appreciated and we hope our service can be worth it.

 

If You Found A Dead Link Please Report Below In Comment Box


1
Leave a Reply

avatar
1 Comment threads
0 Thread replies
0 Followers
 
Most reacted comment
Hottest comment thread
1 Comment authors
coolak Recent comment authors
  Subscribe  
newest oldest most voted
Notify of
coolak
Guest
coolak

admin plz upload zee5 ishq aajkal season 3 in 1080p
also upload season 1 in 1080p