Yuvvraaj (2008) Hindi 1080p WebHD AVC {Music Video} ESuBS By-DusIcTv


❤ Donate To keep US Alive ❤

Yuvvraaj (2008) Hindi 1080p WebHD AVC {Music Video} ESuBS By-DusIcTv

:details:

Format                                   : Matroska

Format version                           : Version 4
File size                                : 3.88 GB
Overall bit rate                         : 17.2 Mb/s

Encoded date                             : UTC 2019-06-25 05:05:57
Writing application : mkvmerge v34.0.0 (‘Sight and Seen’) 64-bit
Writing library  : libebml v1.3.7 + libmatroska v1.5.0

Video
ID                                       : 1
Format                                   : AVC
Format/Info                              : Advanced Video Codec
Format profile                           : [email protected]
Format settings                          : CABAC / 4 Ref Frames
Format settings, CABAC                   : Yes
Format settings, Reference frames        : 4 frames
Codec ID                                 : V_MPEG4/ISO/AVC
Bit rate                                 : 17.0 Mb/s
Width                                    : 1 920 pixels
Height                                   : 880 pixels
Display aspect ratio                     : 2.2:1
Frame rate mode                          : Constant
Frame rate                               : 24.000 FPS
Color space                              : YUV
Chroma subsampling                       : 4:2:0
Bit depth                                : 8 bits
Scan type                                : Progressive
Bits/(Pixel*Frame)                       : 0.418
Stream size                              : 108 MiB (99%)
Title                                    : DusIcTv
Default                                  : Yes
Forced                                   : No

Audio
ID                                       : 2
Format                                   : AAC LC
Format/Info                   : Advanced Audio Codec
Codec ID                                 : A_AAC-2
Bit rate                                 : 192 kb/s
Channel(s)                               : 2 channels
Channel layout                           : L R
Sampling rate                            : 48.0 kHz
Frame rate                               : 46.875 FPS (1024 SPF)
Compression mode                         : Lossy
Delay relative to video                  : 14 ms
Stream size                              : 1.23 MiB (1%)
Title                                    : DusIcTv
Default                                  : Yes
Forced                                   : No

:screens:














:download2:
01- Violin Music [By-DusIcTv].mkv   109.35 MB

https://thefileslocker.com/lso745ndxuy2.html

02-Main Hoon Yuvvraaj [By-DusIcTv].mkv   117.14 MB

https://thefileslocker.com/r19l7a0ew1go.html

03-Tu Meri Dost Hai [By-DusIcTv].mkv   493.49 MB

https://thefileslocker.com/126iq67oa33e.html

04-Tu Meri Dost Hai (2nd) [By-DusIcTv].mkv   134.30 MB

https://thefileslocker.com/ut3cslpyssxh.html

05-Shanno Shanno [By-DusIcTv].mkv   379.78 MB

https://thefileslocker.com/djrfsoaxgxw5.html

06-Happy Birthday (Music) [By-DusIcTv].mkv   305.55 MB

https://thefileslocker.com/t1qdn9b1dia3.html

07-Mastam Mastam [By-DusIcTv].mkv   568.20 MB

https://thefileslocker.com/jl31uu6jd6nr.html

08-Tu Muskura [By-DusIcTv].mkv   324.37 MB

https://thefileslocker.com/bplcrtiesmtf.html

09-Manmohini Morey [By-DusIcTv].mkv   163.55 MB

https://thefileslocker.com/2cs40b6n9v91.html

10-Zindagi [By-DusIcTv].mkv   124.34 MB

https://thefileslocker.com/gznh7uvnx0f9.html

11-Dil Ka Rishta [By-DusIcTv].mkv   682.12 MB

https://thefileslocker.com/6ntc6gnhhn9k.html

12-End Mix [By-DusIcTv].mkv   576.57 MB

https://thefileslocker.com/nc7i6x42kvzx.html

https://thefileslocker.com/m69ymwtwudow.html
https://desiupload.to/f/6zqogl-hdodm1ew678kx
https://uptobox.com/fv6acnw0jtjt

Thansk To Special 26

Leave a Reply

avatar
  Subscribe  
Notify of