Zombieland (2009) 1080p BluRay x264 Dual Audio [Hindi DD5.1 640 Kbps – English DD5.1] – MSUBS ~ Ranvijay | 3.42 GB| G-Drive |


~~~Desi Share.org~~~

PropellerAds

❤ Donate To keep US Alive ❤

Zombieland (2009) 1080p BluRay x264 Dual Audio [Hindi DD5.1 640 Kbps – English DD5.1] – MSUBS ~ Ranvijay

Thanks To Hammer For Hindi Audio

General
Format                                   : Matroska
Format version                           : Version 4 / Version 2
File size                                : 3.42 GiB
Duration                                 : 1 h 27 min
Overall bit rate                         : 5 584 kb/s
Movie name                               : Zombieland (2009) 1080p BluRay x264 Dual Audio [Hindi DD5.1 640 Kbps – English DD5.1] – MSUBS ~ Ranvijay

Video
ID                                       : 1
Format                                   : AVC
Format/Info                              : Advanced Video Codec
Format profile                           : [email protected]
Format settings                          : CABAC / 5 Ref Frames
Format settings, CABAC                   : Yes
Format settings, RefFrames               : 5 frames
Codec ID                                 : V_MPEG4/ISO/AVC
Duration                                 : 1 h 27 min
Bit rate                                 : 4 500 kb/s
Width                                    : 1 920 pixels
Height                                   : 800 pixels
Display aspect ratio                     : 2.40:1
Frame rate mode                          : Constant
Frame rate                               : 23.976 (24000/1001) FPS
Color space                              : YUV
Chroma subsampling                       : 4:2:0
Bit depth                                : 8 bits
Scan type                                : Progressive
Bits/(Pixel*Frame)                       : 0.122
Stream size                              : 2.75 GiB (81%)
Title                                    : ~Ranvijay~

Audio #1
ID                                       : 2
Format                                   : AC-3
Format/Info                              : Audio Coding 3
Codec ID                                 : A_AC3
Duration                                 : 1 h 27 min
Bit rate mode                            : Constant
Bit rate                                 : 640 kb/s
Channel(s)                               : 6 channels
Channel positions                        : Front: L C R, Side: L R, LFE
Sampling rate                            : 48.0 kHz
Frame rate                               : 31.250 FPS (1536 SPF)
Bit depth                                : 16 bits
Compression mode                         : Lossy
Stream size                              : 401 MiB (11%)
Title                                    : ~Ranvijay~
Language                                 : Hindi
Service kind                             : Complete Main
Default                                  : Yes
Forced                                   : Yes

Audio #2
ID                                       : 3
Format                                   : AC-3
Format/Info                              : Audio Coding 3
Codec ID                                 : A_AC3
Duration                                 : 1 h 27 min
Bit rate mode                            : Constant
Bit rate                                 : 384 kb/s
Channel(s)                               : 6 channels
Channel positions                        : Front: L C R, Side: L R, LFE
Sampling rate                            : 48.0 kHz
Frame rate                               : 31.250 FPS (1536 SPF)
Bit depth                                : 16 bits
Compression mode                         : Lossy
Stream size                              : 241 MiB (7%)
Title                                    : ~Ranvijay~
Language                                 : English
Service kind                             : Complete Main
Default                                  : No
Forced                                   : No

Text #1
ID                                       : 4
Format                                   : PGS
Muxing mode                              : zlib
Codec ID                                 : S_HDMV/PGS
Codec ID/Info                            : Picture based subtitle format used on BDs/HD-DVDs
Duration                                 : 1 h 26 min
Bit rate                                 : 28.5 kb/s
Count of elements                        : 1790
Stream size                              : 17.8 MiB (1%)
Title                                    : ~Ranvijay~
Language                                 : English
Default                                  : Yes
Forced                                   : Yes

Text #2
ID                                       : 5
Format                                   : PGS
Muxing mode                              : zlib
Codec ID                                 : S_HDMV/PGS
Codec ID/Info                            : Picture based subtitle format used on BDs/HD-DVDs
Duration                                 : 1 h 27 min
Bit rate                                 : 74.0 kb/s
Count of elements                        : 3588
Stream size                              : 46.2 MiB (1%)
Title                                    : ~Ranvijay~
Language                                 : English
Default                                  : No
Forced                                   : No

Text #3
ID                                       : 6
Format                                   : PGS
Muxing mode                              : zlib
Codec ID                                 : S_HDMV/PGS
Codec ID/Info                            : Picture based subtitle format used on BDs/HD-DVDs
Duration                                 : 1 h 16 min
Bit rate                                 : 16.3 kb/s
Count of elements                        : 720
Stream size                              : 8.88 MiB (0%)
Title                                    : ~Ranvijay~
Language                                 : English
Default                                  : No
Forced                                   : No

Text #4
ID                                       : 7
Format                                   : PGS
Muxing mode                              : zlib
Codec ID                                 : S_HDMV/PGS
Codec ID/Info                            : Picture based subtitle format used on BDs/HD-DVDs
Duration                                 : 1 h 26 min
Bit rate                                 : 27.4 kb/s
Count of elements                        : 1879
Stream size                              : 17.0 MiB (0%)
Title                                    : ~Ranvijay~
Language                                 : Hindi
Default                                  : No
Forced                                   : No

Menu
00:00:00.000                             : en:00:00:00.000
00:00:34.618                             : en:00:00:34.618
00:02:19.473                             : en:00:02:19.473
00:07:15.352                             : en:00:07:15.352
00:16:22.732                             : en:00:16:22.732
00:21:14.064                             : en:00:21:14.064
00:22:20.965                             : en:00:22:20.965
00:23:08.637                             : en:00:23:08.637
00:23:34.705                             : en:00:23:34.705
00:24:05.944                             : en:00:24:05.944
00:30:50.724                             : en:00:30:50.724
00:34:17.597                             : en:00:34:17.597
00:46:35.167                             : en:00:46:35.167
00:52:55.464                             : en:00:52:55.464
01:05:54.242                             : en:01:05:54.242
01:07:01.726                             : en:01:07:01.726
01:11:10.641                             : en:01:11:10.641
01:12:22.129                             : en:01:12:22.129
01:14:24.168                             : en:01:14:24.168
01:14:53.572                             : en:01:14:53.572
01:17:20.302                             : en:01:17:20.302
01:19:13.791                             : en:01:19:13.791
01:19:46.532                             : en:01:19:46.532

G- Drive Download 3.5 GB

The File Locker  Download 3.5 GB

 

[How To Download]

 
Link Shorteners can be a pain, but they are our only way to maintain the servers. Your patience is highly appreciated and we hope our service can be worth it.

 

{ ------ High-Speed Download Server ----- }

 

If You Found A Dead Link Please Report Below In Comment Box


Leave a Reply

avatar
  Subscribe  
Notify of